:Search:

Titanic (1997) 1080p BDRip x264 Dual Audio English Hindi AC3 5.1 - MeGUiL

Torrent:
Thumbnail:
Trailer:
Similar Posts:
Name Uploaded Size Se Le Upl. by
Planetary Annihilation TITANS v120636 PA Consultants Update DLC MULTi… 2024-04-14 1.7 GB 44 21 indexFroggy
Subterrain Mines of Titan v1 291 2024-04-13 401.1 MB 34 29 IGGGAMES
Planetary Annihilation TITANS Build 14018038 MULTi12 REPACK KaOs 2024-04-12 1.7 GB 38 12 KaOsKrew
Planetary Annihilation TITANS PA Consultants SKIDROW 2024-04-12 2.6 GB 45 12 IGGGAMES
Subterrain Mines of Titan v1 28 2024-04-10 396.2 MB 17 43 IGGGAMES
ToughLoveX 19 10 24 Laney Grey Titanic Slut XXX 2160p DOLBY H P MP4 B… 2024-04-10 2.9 GB 27 21 Freddy1714
Titanic 1997 AC3 5 1 ITA ENG 2160p H265 HDR10 Dolby Vision sub 2024-04-06 5.9 GB 32 28 robbyrs
Teen Titans Go S08E29 WEB x264 TORRENTGALAXY 2024-04-03 85.9 MB 48 48 TGxTV
Teen Titans Go S08E29 Wild Card 1080p AMZN WEB DL DDP2 0 H 264 NTb TGx 2024-04-03 574.7 MB 43 39 TGxTV
Teen Titans Go S08E29 WEB x264 TORRENTGALAXY 2024-04-03 85.9 MB 22 22 TGxTV
Uploader: meguil
Downloads: 287
Type: Dubs/Dual Audio
Genre: Action, Disaster, Drama, Romance
Images:
Titanic (1997) 1080p BDRip x264 Dual Audio English Hindi AC3 5.1 - MeGUiL
Titanic (1997) 1080p BDRip x264 Dual Audio English Hindi AC3 5.1 - MeGUiL
Titanic (1997) 1080p BDRip x264 Dual Audio English Hindi AC3 5.1 - MeGUiL
Titanic (1997) 1080p BDRip x264 Dual Audio English Hindi AC3 5.1 - MeGUiL
Titanic (1997) 1080p BDRip x264 Dual Audio English Hindi AC3 5.1 - MeGUiL
Titanic (1997) 1080p BDRip x264 Dual Audio English Hindi AC3 5.1 - MeGUiL
Titanic (1997) 1080p BDRip x264 Dual Audio English Hindi AC3 5.1 - MeGUiL
Titanic (1997) 1080p BDRip x264 Dual Audio English Hindi AC3 5.1 - MeGUiL
Titanic (1997) 1080p BDRip x264 Dual Audio English Hindi AC3 5.1 - MeGUiL
Titanic (1997) 1080p BDRip x264 Dual Audio English Hindi AC3 5.1 - MeGUiL
Titanic (1997) 1080p BDRip x264 Dual Audio English Hindi AC3 5.1 - MeGUiL
Titanic (1997) 1080p BDRip x264 Dual Audio English Hindi AC3 5.1 - MeGUiL
Titanic (1997) 1080p BDRip x264 Dual Audio English Hindi AC3 5.1 - MeGUiL
Titanic (1997) 1080p BDRip x264 Dual Audio English Hindi AC3 5.1 - MeGUiL
Titanic (1997) 1080p BDRip x264 Dual Audio English Hindi AC3 5.1 - MeGUiL
Titanic (1997) 1080p BDRip x264 Dual Audio English Hindi AC3 5.1 - MeGUiL
Info Hash: 46725D1EE1AAE5A8FEDC2DA8E173CD1C04401775
Language: Hindi
Description: Media Info
General
Format : Matroska
Format version : Version 4
File size : 5.46 GiB
Duration : 3 h 14 min
Overall bit rate mode : Constant
Overall bit rate : 4 011 kb/s
Movie name : Titanic (1997) 1080p BDRip x264 Dual Audio English Hindi AC3 5.1 - MeGUiL
Encoded date : UTC 2020-11-28 14:47:46
Writing application : mkvmerge v7.7.0 ('Six Voices') 64bit built on Feb 28 2015 23:39:33
Writing library : libebml v1.3.1 + libmatroska v1.4.2 / Lavf58.29.100
Video
ID : 1
Format : AVC
Format/Info : Advanced Video Codec
Format profile :
[email protected]
Format settings : CABAC / 1 Ref Frames
Format settings, CABAC : Yes
Format settings, Reference frames : 1 frame
Codec ID : V_MPEG4/ISO/AVC
Duration : 3 h 14 min
Bit rate mode : Constant
Bit rate : 3 397 kb/s
Width : 1 916 pixels
Height : 820 pixels
Display aspect ratio : 2.35:1
Frame rate mode : Constant
Frame rate : 23.976 (24000/1001) FPS
Color space : YUV
Chroma subsampling : 4:2:0
Bit depth : 8 bits
Scan type : Progressive
Bits/(Pixel*Frame) : 0.090
Stream size : 4.59 GiB (84%)
Title : Titanic (1997) 1080p BDRip x264 Dual Audio English Hindi AC3 5.1 - MeGUiL
Default : Yes
Forced : No
Color range : Limited
Color primaries : BT.709
Transfer characteristics : BT.709
Matrix coefficients : BT.709
Audio #1
ID : 2
Format : AC-3
Format/Info : Audio Coding 3
Commercial name : Dolby Digital
Codec ID : A_AC3
Duration : 3 h 14 min
Bit rate mode : Constant
Bit rate : 320 kb/s
Channel(s) : 6 channels
Channel layout : L R C LFE Ls Rs
Sampling rate : 48.0 kHz
Frame rate : 31.250 FPS (1536 SPF)
Compression mode : Lossy
Delay relative to video : -5 ms
Stream size : 446 MiB (8%)
Title : AC3 320 kbps 5.1 - MeGUiL
Language : English
Service kind : Complete Main
Default : Yes
Forced : No
Audio #2
ID : 3
Format : AC-3
Format/Info : Audio Coding 3
Commercial name : Dolby Digital
Codec ID : A_AC3
Duration : 3 h 14 min
Bit rate mode : Constant
Bit rate : 320 kb/s
Channel(s) : 6 channels
Channel layout : L R C LFE Ls Rs
Sampling rate : 48.0 kHz
Frame rate : 31.250 FPS (1536 SPF)
Compression mode : Lossy
Delay relative to video : -5 ms
Stream size : 446 MiB (8%)
Title : AC3 320 kbps 5.1 - MeGUiL
Language : Hindi
Service kind : Complete Main
Default : No
Forced : No
Menu
00:00:00.000 : :00:00:00.000
00:01:24.459 : :00:01:24.376
00:04:40.113 : :00:04:39.988
00:08:26.131 : :00:08:26.131
00:10:46.896 : :00:10:46.771
00:12:52.647 : :00:12:52.647
00:16:52.428 : :00:16:52.428
00:20:07.873 : :00:20:07.748
00:23:38.918 : :00:23:38.876
00:26:26.543 : :00:26:26.543
00:29:03.450 : :00:29:03.366
00:29:37.567 : :00:29:37.526
00:34:59.931 : :00:34:59.931
00:36:48.623 : :00:36:48.623
00:42:59.160 : :00:42:59.160
00:45:26.098 : :00:45:26.098
00:47:11.746 : :00:47:11.620
00:53:33.252 : :00:53:33.043
00:56:47.988 : :00:56:47.988
01:05:32.053 : :01:05:32.053
01:10:20.049 : :01:10:19.965
01:14:06.525 : :01:14:06.358
01:16:10.691 : :01:16:10.691
01:19:59.128 : :01:19:59.044
01:22:50.507 : :01:22:50.507
01:23:40.057 : :01:23:40.056
01:28:21.755 : :01:28:21.629
01:29:19.855 : :01:29:19.854
01:32:52.317 : :01:32:52.275
01:36:59.272 : :01:36:59.104
01:44:41.150 : :01:44:41.149
01:46:21.041 : :01:46:21.041
01:47:58.847 : :01:47:58.847
01:50:11.105 : :01:50:11.104
01:52:21.443 : :01:52:21.401
01:53:54.369 : :01:53:54.327
01:55:21.873 : :01:55:21.831
01:56:10.881 : :01:56:10.880
01:57:53.275 : :01:57:53.232
02:06:38.341 : :02:06:38.340
02:08:50.014 : :02:08:49.972
02:11:22.083 : :02:11:22.082
02:15:42.635 : :02:15:42.550
02:19:43.458 : :02:19:43.458
02:21:24.559 : :02:21:24.559
02:25:28.762 : :02:25:28.761
02:27:28.465 : :02:27:28.422
02:29:07.272 : :02:29:07.271
02:29:56.696 : :02:29:56.695
02:33:31.536 : :02:33:31.535
02:36:52.528 : :02:36:52.360
02:38:33.963 : :02:38:33.878
02:40:34.708 : :02:40:34.666
02:45:00.641 : :02:45:00.640
02:47:48.976 : :02:47:48.808
02:49:22.694 : :02:49:22.526
02:52:09.694 : :02:52:09.610
02:53:41.369 : :02:53:41.327
02:57:53.496 : :02:57:53.495
02:59:35.390 : :02:59:35.305
03:01:29.253 : :03:01:29.252
03:03:13.774 : :03:03:13.648
03:04:57.878 : :03:04:57.877
03:07:19.645 : :03:07:19.644
Category: Movies
Size: 5.5 GB
Added: June 2, 2023, 12:46 a.m.
Peers: Seeders: 27, Leechers: 11,
Multiple Quality Available: M.Q.A
IMDB tt0120338
IMDB Title Titanic
IMDB Genre Drama, Romance,
IMDB Runtime 3:14:00 Hours
IMDB Rating 7.9
Director James Cameron
IMDB cast Leonardo DiCaprio, Kate Winslet, Billy Zane
IMDB plot A seventeen-year-old aristocrat falls in love with a kind but poor artist aboard the luxurious, ill-fated R.M.S. Titanic.

Comment below