:Search:

Squid Game The Challenge S01 E06 E09 1080p NF WEB DL DualAudio DDP5 1 HDR H 265 REL1VIN

Torrent:
Thumbnail:
Similar Posts:
Name Uploaded Size Se Le Upl. by
SQUID GAME S01 2021 KOREAN 19 AUDIO LANGUAGES EVERY SUBTITLE LANGUAGE… 2024-02-13 101.6 GB 17 22 MassModz
Squid Game S01 KOREAN ENG FRA GER ITA SPA MULTI 2160p NF WEB DL DDP5 … 2024-02-07 84.4 GB 35 32 MassModz
OnlyFans 2023 Nicole Doshi Fucks BBC In Public After Squid Games Date… 2024-01-20 329.7 MB 13 48 s33mmyy
Squid Game The Challenge S01e01 10 1080p Ita Eng h265 10bit SubS byMe… 2023-12-20 10.3 GB 3 22 metalhit
Squid Game The Challenge S01e01 10 720p Ita Eng SubS byMe7alh MIRCrew 2023-12-20 13.2 GB 5 11 metalhit
Squid Game The Challenge S01E01 10 2023 DLMux 1080p E AC3 AC3 ITA ENG… 2023-12-18 24.7 GB 40 39 eXpOrTeRICV
Squid Game The Challenge S01e01 09 1080p Ita Eng h265 10bit SubS byMe… 2023-12-18 9.4 GB 5 29 metalhit
Squid Game The Challenge S01e01 09 720p Ita Eng SubS byMe7alh MIRCrew 2023-12-18 12.2 GB 6 29 metalhit
Squid Game The Challenge 2023 S01 1080p NF WEB DL MULTi DD 5 1 DV HDR… 2023-12-13 25.4 GB 48 39 xCLuMsYx
Squid Game The Challenge 2023 S01 1080p NF WEB DL MULTi AAC5 1 H 265 … 2023-12-13 23.5 GB 20 19 xCLuMsYx
Uploader: REL1VIN
Downloads: 505
Type: HEVC/x265
Images:
Squid Game The Challenge S01 E06 E09 1080p NF WEB DL DualAudio DDP5 1 HDR H 265 REL1VIN
Squid Game The Challenge S01 E06 E09 1080p NF WEB DL DualAudio DDP5 1 HDR H 265 REL1VIN
Squid Game The Challenge S01 E06 E09 1080p NF WEB DL DualAudio DDP5 1 HDR H 265 REL1VIN
Squid Game The Challenge S01 E06 E09 1080p NF WEB DL DualAudio DDP5 1 HDR H 265 REL1VIN
Info Hash: C3AE4BF2D13AB449FBEE601FF0F7FA7780306164
Language: English
Description: General
Unique ID: 248685263500616185707267106874385878353 (0xBB170A214896CABB33A6CA18EFA1CD51)
Complete name: Squid.Game.The.Challenge.S01E06.Goodbye.1080p.NF.WEB-DL.[Eng + Hin].DDP5.1.HDR.H.265-REL1VIN.mkv
Format : Matroska
Format version : Version 4
File size: 460 MiB
Duration : 55 min 22 s
Overall bit rate : 1 161 kb/s
Encoded date : UTC 2023-11-29 10:08:19
Writing application: mkvmerge v65.0.0 ('Too Much') 64-bit
Writing library: libebml v1.4.2 + libmatroska v1.6.3
Video
ID : 1
Format : HEVC
Format/Info: High Efficiency Video Coding
Format profile : Main 10@L4@Main
HDR format : SMPTE ST 2086, HDR10 compatible
Codec ID : V_MPEGH/ISO/HEVC
Duration : 55 min 21 s
Bit rate : 647 kb/s
Width: 1 920 pixels
Height : 1 080 pixels
Display aspect ratio : 16:9
Frame rate mode: Constant
Frame rate : 25.000 FPS
Color space: YUV
Chroma subsampling : 4:2:0 (Type 2)
Bit depth: 10 bits
Bits/(Pixel*Frame) : 0.012
Stream size: 256 MiB (56%)
Default: Yes
Forced : No
Color range: Limited
Color primaries: BT.2020
Transfer characteristics : PQ
Matrix coefficients: BT.2020 non-constant
Mastering display color primaries: Display P3
Mastering display luminance: min: 0.0001 cd/m2, max: 1000 cd/m2
Maximum Content Light Level: 991 cd/m2
Maximum Frame-Average Light Level: 169 cd/m2
Audio #1
ID : 2
Format : E-AC-3
Format/Info: Enhanced AC-3
Commercial name: Dolby Digital Plus
Codec ID : A_EAC3
Duration : 55 min 22 s
Bit rate mode: Constant
Bit rate : 256 kb/s
Channel(s) : 6 channels
Channel layout : L R C LFE Ls Rs
Sampling rate: 48.0 kHz
Frame rate : 31.250 FPS (1536 SPF)
Compression mode : Lossy
Stream size: 101 MiB (22%)
Language : English
Service kind : Complete Main
Default: Yes
Forced : No
Audio #2
ID : 3
Format : E-AC-3
Format/Info: Enhanced AC-3
Commercial name: Dolby Digital Plus
Codec ID : A_EAC3
Duration : 55 min 22 s
Bit rate mode: Constant
Bit rate : 256 kb/s
Channel(s) : 6 channels
Channel layout : L R C LFE Ls Rs
Sampling rate: 48.0 kHz
Frame rate : 31.250 FPS (1536 SPF)
Compression mode : Lossy
Stream size: 101 MiB (22%)
Language : Hindi
Service kind : Complete Main
Default: No
Forced : No
Text #1
ID : 4
Format : UTF-8
Codec ID : S_TEXT/UTF8
Codec ID/Info: UTF-8 Plain Text
Duration : 37 min 37 s
Bit rate : 3 b/s
Count of elements: 31
Stream size: 873 Bytes (0%)
Title: Forced
Language : English
Default: Yes
Forced : Yes
Text #2
ID : 5
Format : UTF-8
Codec ID : S_TEXT/UTF8
Codec ID/Info: UTF-8 Plain Text
Duration : 51 min 35 s
Bit rate : 99 b/s
Count of elements: 1073
Stream size: 37.4 KiB (0%)
Title: SDH
Language : English
Default: No
Forced : No
Category: TV
Size: 1.7 GB
Added: Nov. 30, 2023, 10:45 a.m.
Peers: Seeders: 63, Leechers: 3,
Files:
  1. Squid.Game.The.Challenge.S01E06.Goodbye.1080p.NF.WEB-DL.[Eng + Hin].DDP5.1.HDR.H.265-REL1VIN.mkv 459.7 MB
  2. 264783 258.6 KB
  3. Squid.Game.The.Challenge.S01E07.Friend.And.Foe.1080p.NF.WEB-DL.[Eng + Hin].DDP5.1.HDR.H.265-REL1VIN.mkv 336.4 MB
  4. 83953 82.0 KB
  5. Squid.Game.The.Challenge.S01E08.One.Step.Closer.1080p.NF.WEB-DL.[Eng + Hin].DDP5.1.HDR.H.265-REL1VIN.mkv 471.7 MB

Comment below