:Search:

Scavengers Reign 2023 S01 1080p MAX WEBRip x265 HEVC 10bit EAC3 5 1 English REX PxL

Torrent:
Thumbnail:
Similar Posts:
Name Uploaded Size Se Le Upl. by
Scavengers Reign S01 2023 1080p WEB RIP AV1 Opus NeoNyx343 2024-02-23 1.8 GB 36 37 NeoNyx343
Nicolas Snyder Scavengers Reign Original Max Series Soundtrack 2024 2… 2024-02-16 449.2 MB 22 23 pmedia
Scavengers Reign 2023 S01 1080p AMZN WEBRip AV1 Opus 5 1 RAV1NE 2024-02-04 3.5 GB 4 82 RAV1NE
Scavengers Reign S01 1080p MAX WEB DL x265 Protozoan Pilot 2023-12-30 4.9 GB 8 56 Protozoan
Scavengers Reign 2023 S01 1080p MAX WEBRip x265 HEVC 10bit EAC3 5 1 E… 2023-12-04 9.1 GB 315 24 MikaSa16
Scavengers Reign S01 1080p WEB h264 EDITH 2023-11-21 22.7 GB 183 142 th3damager
Scavengers Reign 2023 S01 1080p MAX WEB DL DDP5 1 H 264 TAG 2023-11-21 19.3 GB 137 124 TAG
Scavengers Reign 2023 S01E12 WEBrip 720p AV1 Opus nAV1gator 2023-11-10 162.0 MB 131 40 nAV1gator
Scavengers Reign 2023 S01E11 WEBrip 720p AV1 Opus nAV1gator 2023-11-10 169.0 MB 128 52 nAV1gator
Scavengers Reign 2023 S01E10 WEBrip 720p AV1 Opus nAV1gator 2023-11-10 167.8 MB 129 37 nAV1gator
Uploader: MikaSa16
Downloads: 4854
Type: HEVC/x265
Images:
Scavengers Reign 2023 S01 1080p MAX WEBRip x265 HEVC 10bit EAC3 5 1 English REX PxL
Scavengers Reign 2023 S01 1080p MAX WEBRip x265 HEVC 10bit EAC3 5 1 English REX PxL
Scavengers Reign 2023 S01 1080p MAX WEBRip x265 HEVC 10bit EAC3 5 1 English REX PxL
Scavengers Reign 2023 S01 1080p MAX WEBRip x265 HEVC 10bit EAC3 5 1 English REX PxL
Scavengers Reign 2023 S01 1080p MAX WEBRip x265 HEVC 10bit EAC3 5 1 English REX PxL
Scavengers Reign 2023 S01 1080p MAX WEBRip x265 HEVC 10bit EAC3 5 1 English REX PxL
Info Hash: 28006771202B4D807C297C3577A6F7D8372756D7
Language: English
Description: MEDIAINFO ?
General
Unique ID : 73585268327496271300997175227178593107 (0x375C01D623E1459FDA7F0D6E175CAB53)
Complete name : Scavengers Reign (2023) S01E01 The Signal (1080p MAX WEBRip x265 HEVC 10bit EAC3 5.1 English - REX) [PxL].mkv
Format : Matroska
Format version : Version 4
File size : 725 MiB
Duration : 24 min 0 s
Overall bit rate : 4 219 kb/s
Frame rate : 23.976 FPS
Movie name : Scavengers Reign (2023) S01E01 The Signal | Encoded by REX [PxL]
Encoded date : 2023-11-30 19:20:17 UTC
Writing application : mkvmerge v80.0 ('Roundabout') 64-bit
Writing library : libebml v1.4.4 + libmatroska v1.7.1 / Lavf60.16.100
Video
ID : 1
Format : HEVC
Format/Info : High Efficiency Video Coding
Format profile : Main 10@L4@Main
Codec ID : V_MPEGH/ISO/HEVC
Duration : 24 min 0 s
Bit rate : 3 961 kb/s
Width : 1 920 pixels
Height : 1 080 pixels
Display aspect ratio : 16:9
Frame rate mode : Constant
Frame rate : 23.976 (24000/1001) FPS
Color space : YUV
Chroma subsampling : 4:2:0 (Type 0)
Bit depth : 10 bits
Bits/(Pixel*Frame) : 0.080
Stream size : 680 MiB (94%)
Writing library : x265 3.5+1-f0c1022b6:[Windows][GCC 13.2.0][64 bit] 10bit
Encoding settings : cpuid=1111039 / frame-threads=5 / numa-pools=64,0,0,0 / wpp / no-pmode / no-pme / no-psnr / no-ssim / log-level=2 / input-csp=1 / input-res=1920x1080 / interlace=0 / total-frames=151425 / level-idc=0 / high-tier=1 / uhd-bd=0 / ref=4 / no-allow-non-conformance / no-repeat-headers / annexb / no-aud / no-eob / no-eos / no-hrd / info / hash=0 / temporal-layers=0 / open-gop / min-keyint=25 / keyint=240 / gop-lookahead=0 / bframes=8 / b-adapt=2 / b-pyramid / bframe-bias=0 / rc-lookahead=120 / lookahead-slices=5 / scenecut=40 / no-hist-scenecut / radl=0 / no-splice / no-intra-refresh / ctu=64 / min-cu-size=8 / no-rect / no-amp / max-tu-size=32 / tu-inter-depth=2 / tu-intra-depth=1 / limit-tu=0 / rdoq-level=0 / dynamic-rd=0.00 / no-ssim-rd / signhide / no-tskip / nr-intra=0 / nr-inter=0 / no-constrained-intra / strong-intra-smoothing / max-merge=3 / limit-refs=3 / no-limit-modes / me=3 / subme=4 / merange=57 / temporal-mvp / no-frame-dup / no-hme / weightp / no-weightb / no-analyze-src-pics / deblock=-1:-1 / no-sao / no-sao-non-deblock / rd=6 / selective-sao=0 / early-skip / no-rskip / no-fast-intra / no-tskip-fast / no-cu-lossless / b-intra / no-splitrd-skip / rdpenalty=0 / psy-rd=2.05 / psy-rdoq=0.00 / no-rd-refine / no-lossless / cbqpoffs=0 / crqpoffs=0 / rc=crf / crf=21.0 / qcomp=0.60 / qpstep=4 / stats-write=0 / stats-read=0 / ipratio=1.40 / pbratio=1.00 / aq-mode=4 / aq-strength=1.00 / cutree / zone-count=0 / no-strict-cbr / qg-size=32 / no-rc-grain / qpmax=69 / qpmin=0 / no-const-vbv / sar=1 / overscan=0 / videoformat=5 / range=0 / colorprim=1 / transfer=1 / colormatrix=1 / chromaloc=1 / chromaloc-top=0 / chromaloc-bottom=0 / display-window=1 / left=0 / top=0 / right=0 / bottom=0 / min-luma=0 / max-luma=1023 / log2-max-poc-lsb=8 / vui-timing-info / vui-hrd-info / slices=1 / no-opt-qp-pps / no-opt-ref-list-length-pps / no-multi-pass-opt-rps / scenecut-bias=0.00 / no-opt-cu-delta-qp / no-aq-motion / no-hdr10 / no-hdr10-opt / no-dhdr10-opt / no-idr-recovery-sei / analysis-reuse-level=0 / analysis-save-reuse-level=0 / analysis-load-reuse-level=0 / scale-factor=0 / refine-intra=0 / refine-inter=0 / refine-mv=1 / refine-ctu-distortion=0 / no-limit-sao / ctu-info=0 / no-lowpass-dct / refine-analysis-type=0 / copy-pic=1 / max-ausize-factor=1.0 / no-dynamic-refine / no-single-sei / no-hevc-aq / no-svt / no-field / qp-adaptation-range=1.00 / scenecut-aware-qp=0conformance-window-offsets / right=0 / bottom=0 / decoder-max-rate=0 / no-vbv-live-multi-pass / no-mcstf / no-sbrc
Default : Yes
Forced : No
Color range : Limited
Color primaries : BT.709
Transfer characteristics : BT.709
Matrix coefficients : BT.709
Audio
ID : 2
Format : E-AC-3
Format/Info : Enhanced AC-3
Commercial name : Dolby Digital Plus
Codec ID : A_EAC3
Duration : 24 min 0 s
Bit rate mode : Constant
Bit rate : 256 kb/s
Channel(s) : 6 channels
Channel layout : L R C LFE Ls Rs
Sampling rate : 48.0 kHz
Frame rate : 31.250 FPS (1536 SPF)
Compression mode : Lossy
Stream size : 44.0 MiB (6%)
Language : English
Service kind : Complete Main
Default : Yes
Forced : No
Text #1
ID : 3
Format : UTF-8
Codec ID : S_TEXT/UTF8
Codec ID/Info : UTF-8 Plain Text
Duration : 22 min 28 s
Bit rate : 24 b/s
Frame rate : 0.116 FPS
Count of elements : 156
Stream size : 4.00 KiB (0%)
Language : English
Default : No
Forced : No
Text #2
ID : 4
Format : UTF-8
Codec ID : S_TEXT/UTF8
Codec ID/Info : UTF-8 Plain Text
Duration : 23 min 49 s
Bit rate : 38 b/s
Frame rate : 0.249 FPS
Count of elements : 356
Stream size : 6.64 KiB (0%)
Title : SDH
Language : English
Default : No
Forced : No
Text #3
ID : 5
Format : UTF-8
Codec ID : S_TEXT/UTF8
Codec ID/Info : UTF-8 Plain Text
Duration : 22 min 28 s
Bit rate : 23 b/s
Frame rate : 0.119 FPS
Count of elements : 161
Stream size : 3.82 KiB (0%)
Title : Latin American
Language : Spanish (Latin America)
Default : No
Forced : No
Text #4
ID : 6
Format : UTF-8
Codec ID : S_TEXT/UTF8
Codec ID/Info : UTF-8 Plain Text
Duration : 22 min 27 s
Bit rate : 25 b/s
Frame rate : 0.112 FPS
Count of elements : 151
Stream size : 4.21 KiB (0%)
Title : Brazilian
Language : Portuguese (BR)
Default : No
Forced : No
Menu
00:00:00.000 : en:Scene 01
00:00:53.428 : en:Intro
00:01:27.963 : en:Scene 02
00:23:33.954 : en:Credits
Category: TV
Size: 9.1 GB
Added: Dec. 4, 2023, 11:01 a.m.
Peers: Seeders: 315, Leechers: 24,
Files:
  1. Scavengers Reign (2023) S01E01 The Signal (1080p MAX WEBRip x265 HEVC 10bit EAC3 5.1 English - REX) [PxL].mkv 724.8 MB
  2. Scavengers Reign (2023) S01E02 The Storm (1080p MAX WEBRip x265 HEVC 10bit EAC3 5.1 English - REX) [PxL].mkv 840.3 MB
  3. Scavengers Reign (2023) S01E03 The Wall (1080p MAX WEBRip x265 HEVC 10bit EAC3 5.1 English - REX) [PxL].mkv 772.2 MB
  4. Scavengers Reign (2023) S01E04 The Dream (1080p MAX WEBRip x265 HEVC 10bit EAC3 5.1 English - REX) [PxL].mkv 760.3 MB
  5. Scavengers Reign (2023) S01E05 The Demeter (1080p MAX WEBRip x265 HEVC 10bit EAC3 5.1 English - REX) [PxL].mkv 750.7 MB

Comment below