:Search:

Godzilla x Kong The New Empire 2023 Blu ray 1080p DS4K 10bit HEVC

Torrent:
Thumbnail:
Trailer:
Similar Posts:
Name Uploaded Size Se Le Upl. by
Godzilla x Kong The New Empire 2024 1080p BluRay x264 TrueHD Atmos So… 2024-07-09 14.4 GB 32 19 Soup
Godzilla x Kong The New Empire 2024 1080p BluRay x264 TrueHD At 2024-07-08 14.4 GB 12 14 yrkoon
GODZILLA X KONG THE NEW EMPIRE 2024 4K UHD COMPLETE BLURAY MassModz 2024-07-07 75.4 GB 20 55 MassModz
Godzilla x Kong The New Empire 2024 BDRip 1080p HEVC HDR10 EAC3 Atmos… 2024-07-06 5.7 GB 41 66 OEP
Godzilla x Kong The New Empire 2024 2160p BRRip x265 AAC 7 1 60 FPS B… 2024-07-06 20.5 GB 11 30 BleSSed
Godzilla x Kong The New Empire 2024 Hybrid 2160p UHD BluRay DV HDR10 … 2024-07-06 16.9 GB 34 19 R00T
Godzilla x Kong The New Empire 2024 1080p BRRip x265 AAC 7 1 BleSSed 2024-07-06 4.8 GB 10 18 BleSSed
Godzilla x Kong The New Empire 2024 1080p BluRay REMUX ENG LATINO GER… 2024-07-06 29.9 GB 76 60 Freddy1714
Godzilla x Kong The New Empire 2024 1080p BluRay ENG LATINO GER ITA F… 2024-07-06 16.4 GB 125 25 Freddy1714
Godzilla x Kong The New Empire 2024 2160p UHD BluRay REMUX DV HDR HEV… 2024-07-06 61.4 GB 60 28 webmaster32
Uploader: WiCK0028
Type: HEVC/x265
Images:
Godzilla x Kong The New Empire 2023 Blu ray 1080p DS4K 10bit HEVC
Godzilla x Kong The New Empire 2023 Blu ray 1080p DS4K 10bit HEVC
Godzilla x Kong The New Empire 2023 Blu ray 1080p DS4K 10bit HEVC
Godzilla x Kong The New Empire 2023 Blu ray 1080p DS4K 10bit HEVC
Godzilla x Kong The New Empire 2023 Blu ray 1080p DS4K 10bit HEVC
Godzilla x Kong The New Empire 2023 Blu ray 1080p DS4K 10bit HEVC
Godzilla x Kong The New Empire 2023 Blu ray 1080p DS4K 10bit HEVC
Godzilla x Kong The New Empire 2023 Blu ray 1080p DS4K 10bit HEVC
Godzilla x Kong The New Empire 2023 Blu ray 1080p DS4K 10bit HEVC
Godzilla x Kong The New Empire 2023 Blu ray 1080p DS4K 10bit HEVC
Godzilla x Kong The New Empire 2023 Blu ray 1080p DS4K 10bit HEVC
Godzilla x Kong The New Empire 2023 Blu ray 1080p DS4K 10bit HEVC
Godzilla x Kong The New Empire 2023 Blu ray 1080p DS4K 10bit HEVC
Godzilla x Kong The New Empire 2023 Blu ray 1080p DS4K 10bit HEVC
Godzilla x Kong The New Empire 2023 Blu ray 1080p DS4K 10bit HEVC
Godzilla x Kong The New Empire 2023 Blu ray 1080p DS4K 10bit HEVC
Info Hash: DC628E413963480BAE56F3F1A5079A76C46D0051
Language: Hindi
Description: Media-Info
General
Unique ID : 138271683104775499789660910791858170299 (0x680628519B825350780931905101A9BB)
Complete name : Godzilla.x.Kong.The.New.Empire.2023.Blu-ray.1080p.DS4K.10bit.HEVC.[Org.Hindi.DDP5.1-English.DDP7.1].ESub-NmCT.mkv
Format : Matroska
Format version : Version 4
File size : 5.89 GiB
Duration : 1 h 55 min
Overall bit rate : 7 299 kb/s
Frame rate : 23.976 FPS
Movie name : Godzilla x Kong: The New Empire 2023 - NmCT
Encoded date : 2024-06-09 11:33:05 UTC
Writing application : mkvmerge v85.0 ('Shame For You') 64-bit
Writing library : libebml v1.4.5 + libmatroska v1.7.1
Cover : Yes
Attachments : cover.jpg
Video
ID : 1
Format : HEVC
Format/Info : High Efficiency Video Coding
Format profile : Main [email protected]@High
Codec ID : V_MPEGH/ISO/HEVC
Duration : 1 h 54 min
Bit rate : 6 380 kb/s
Width : 1 920 pixels
Height : 804 pixels
Display aspect ratio : 2.39:1
Frame rate mode : Constant
Frame rate : 23.976 (24000/1001) FPS
Color space : YUV
Chroma subsampling : 4:2:0
Bit depth : 10 bits
Bits/(Pixel*Frame) : 0.172
Stream size : 5.11 GiB (87%)
Default : Yes
Forced : No
Audio #1
ID : 2
Format : E-AC-3
Format/Info : Enhanced AC-3
Commercial name : Dolby Digital Plus
Format profile : Blu-ray Disc
Format settings : Dolby Surround EX
Codec ID : A_EAC3
Duration : 1 h 54 min
Bit rate mode : Constant
Bit rate : 768 kb/s
Channel(s) : 8 channels
Channel layout : L R C LFE Ls Rs Lb Rb
Sampling rate : 48.0 kHz
Frame rate : 31.250 FPS (1536 SPF)
Compression mode : Lossy
Stream size : 630 MiB (10%)
Title : [Dolby Digital Plus] [7.1] [768Kb/s] [48kHz]
Language : English
Service kind : Complete Main
Default : Yes
Forced : No
Dialog Normalization : -25 dB
compr : -0.28 dB
cmixlev : -3.0 dB
surmixlev : -3 dB
dmixmod : Lo/Ro
ltrtcmixlev : -3.0 dB
ltrtsurmixlev : -3.0 dB
lorocmixlev : -3.0 dB
lorosurmixlev : -3.0 dB
dialnorm_Average : -25 dB
dialnorm_Minimum : -25 dB
dialnorm_Maximum : -25 dB
Audio #2
ID : 3
Format : E-AC-3
Format/Info : Enhanced AC-3
Commercial name : Dolby Digital Plus
Codec ID : A_EAC3
Duration : 1 h 55 min
Bit rate mode : Constant
Bit rate : 192 kb/s
Channel(s) : 6 channels
Channel layout : L R C LFE Ls Rs
Sampling rate : 48.0 kHz
Frame rate : 31.250 FPS (1536 SPF)
Compression mode : Lossy
Stream size : 159 MiB (3%)
Title : [Dolby Digital Plus] [5.1] [192Kb/s] [48kHz]
Language : Hindi
Service kind : Complete Main
Default : No
Forced : No
Dialog Normalization : -31 dB
dialnorm_Average : -31 dB
dialnorm_Minimum : -31 dB
dialnorm_Maximum : -31 dB
Text #1
ID : 4
Format : PGS
Muxing mode : zlib
Codec ID : S_HDMV/PGS
Codec ID/Info : Picture based subtitle format used on BDs/HD-DVDs
Duration : 43 s 210 ms
Bit rate : 8 310 b/s
Frame rate : 0.208 FPS
Count of elements : 9
Stream size : 43.8 KiB (0%)
Language : English
Default : No
Forced : No
Text #2
ID : 5
Format : PGS
Muxing mode : zlib
Codec ID : S_HDMV/PGS
Codec ID/Info : Picture based subtitle format used on BDs/HD-DVDs
Duration : 1 h 54 min
Bit rate : 30.5 kb/s
Frame rate : 0.418 FPS
Count of elements : 2868
Stream size : 25.0 MiB (0%)
Language : English
Default : No
Forced : No
Category: Movies
Size: 5.9 GB
Added: June 9, 2024, 12:24 p.m.
Peers: Seeders: 29, Leechers: 40,
Multiple Quality Available: M.Q.A
IMDB tt14539740
IMDB Title Godzilla x Kong: The New Empire
IMDB Genre Action, Adventure, Sci-Fi, Thriller,
IMDB Runtime 1:55:00 Hours
IMDB Rating 6.7
Director Adam Wingard
IMDB cast Rebecca Hall, Brian Tyree Henry, Dan Stevens
IMDB plot Two ancient titans, Godzilla and Kong, clash in an epic battle as humans unravel their intertwined origins and connection to Skull Island's mysteries.

Comment below