:Search:

The Ministry of Ungentlemanly Warfare 2024 1080p BluRay x265 H

Torrent:
Trailer:
Similar Posts:
Name Uploaded Size Se Le Upl. by
The Ministry Of Ungentlemanly Warfare 2024 Bluray 1080p AV1 EN ES 2024-07-14 4.8 GB 11 12 UserHEVC
The Ministry of Ungentlemanly Warfare 2024 BDRip 1080p HEVC HDR10 EAC… 2024-07-10 4.7 GB 5 19 OEP
The Ministry Of Ungentlemanly Warfare 2024 2160p DV HDR10Plus Ai Enha… 2024-07-07 22.5 GB 10 8 chesley96
The Ministry of Ungentlemanly Warfare 2024 1080p BluRay DDP 7 1 x264 … 2024-07-07 5.6 GB 35 10 R00T
The Ministry of Ungentlemanly Warfare 2024 Hybrid 2160p UHD BluRay DV… 2024-07-07 16.4 GB 34 15 R00T
The Ministry of Ungentlemanly Warfare 2024 1080p WEBRip x264 Dual YG 2024-07-07 4.2 GB 22 8 yerisan710
THE MINISTRY OF UNGENTLEMANLY WARFARE 2024 4K UHD COMPLETE BLURAY Mas… 2024-07-07 79.3 GB 13 10 MassModz
The Ministry of Ungentlemanly Warfare 2024 2160p UHD BluRay REMUX HDR… 2024-07-07 72.9 GB 102 89 HSaber
The Ministry Of Ungentlemanly Warfare 2024 2160p BluRay HDR TrueHD At… 2024-07-07 27.0 GB 248 87 Freddy1714
The Ministry Of Ungentlemanly Warfare 2024 1080p BluRay TrueHD Atmos … 2024-07-07 14.2 GB 26 13 Freddy1714
Uploader: QxR
Downloads: 3
Type: HEVC/x265
Images:
The Ministry of Ungentlemanly Warfare 2024 1080p BluRay x265 H
The Ministry of Ungentlemanly Warfare 2024 1080p BluRay x265 H
The Ministry of Ungentlemanly Warfare 2024 1080p BluRay x265 H
The Ministry of Ungentlemanly Warfare 2024 1080p BluRay x265 H
The Ministry of Ungentlemanly Warfare 2024 1080p BluRay x265 H
The Ministry of Ungentlemanly Warfare 2024 1080p BluRay x265 H
The Ministry of Ungentlemanly Warfare 2024 1080p BluRay x265 H
The Ministry of Ungentlemanly Warfare 2024 1080p BluRay x265 H
Info Hash: 981C495804AFB0628A298FE43C15DEB08F2ED99A
Language: English
Description: General
Format : Matroska
Format version : Version 4
File size : 5.32 GiB
Duration : 2 h 0 min
Overall bit rate : 6 330 kb/s
Frame rate : 23.976 FPS
Encoded date : 2024-06-20 13:30:22 UTC
Writing application : mkvmerge v85.0 ('Shame For You') 64-bit
Writing library : libebml v1.4.5 + libmatroska v1.7.1
Attachments : The Ministry of Ungentlemanly Warfare (2024) (1080p BluRay x265 HEVC 10bit EAC3 7.1 Ghost).jpg
Video
Format : HEVC
Format/Info : High Efficiency Video Coding
Format profile : Main 10@L4@Main
Codec ID : V_MPEGH/ISO/HEVC
Duration : 2 h 0 min
Bit rate : 5 499 kb/s
Width : 1 920 pixels
Height : 804 pixels
Display aspect ratio : 2.39:1
Frame rate mode : Constant
Frame rate : 23.976 (24000/1001) FPS
Color space : YUV
Chroma subsampling : 4:2:0
Bit depth : 10 bits
Bits/(Pixel*Frame) : 0.149
Stream size : 4.62 GiB (87%)
Writing library : x265 3.6+13+1-726aec126:[Windows][MSVC 1939][64 bit] 10bit
Encoding settings : cpuid=1111039 / frame-threads=5 / numa-pools=32 / wpp / no-pmode / no-pme / no-psnr / no-ssim / log-level=2 / input-csp=1 / input-res=1920x804 / interlace=0 / total-frames=173137 / level-idc=0 / high-tier=1 / uhd-bd=0 / ref=5 / no-allow-non-conformance / no-repeat-headers / annexb / no-aud / no-eob / no-eos / no-hrd / info / hash=0 / temporal-layers=0 / open-gop / min-keyint=23 / keyint=250 / gop-lookahead=0 / bframes=8 / b-adapt=2 / b-pyramid / bframe-bias=0 / rc-lookahead=80 / lookahead-slices=0 / scenecut=40 / no-hist-scenecut / radl=0 / no-splice / no-intra-refresh / ctu=64 / min-cu-size=8 / no-rect / no-amp / max-tu-size=32 / tu-inter-depth=4 / tu-intra-depth=4 / limit-tu=4 / rdoq-level=2 / dynamic-rd=0.00 / no-ssim-rd / signhide / no-tskip / nr-intra=0 / nr-inter=0 / no-constrained-intra / strong-intra-smoothing / max-merge=3 / limit-refs=1 / limit-modes / me=3 / subme=5 / merange=57 / temporal-mvp / no-frame-dup / no-hme / weightp / no-weightb / no-analyze-src-pics / deblock=-3:-3 / sao / no-sao-non-deblock / rd=4 / selective-sao=2 / no-early-skip / rskip / no-fast-intra / no-tskip-fast / no-cu-lossless / no-b-intra / no-splitrd-skip / rdpenalty=0 / psy-rd=2.00 / psy-rdoq=1.70 / no-rd-refine / no-lossless / cbqpoffs=0 / crqpoffs=0 / rc=abr / bitrate=5500 / qcomp=0.60 / qpstep=4 / stats-write=0 / stats-read=2 / cplxblur=20.0 / qblur=0.5 / ipratio=1.40 / pbratio=1.30 / aq-mode=5 / aq-strength=0.80 / aq-bias-strength=1.00 / cutree / zone-count=0 / no-strict-cbr / qg-size=32 / no-rc-grain / qpmax=69 / qpmin=0 / no-const-vbv / sar=0 / overscan=0 / videoformat=5 / range=0 / colorprim=2 / transfer=2 / colormatrix=2 / chromaloc=0 / display-window=0 / cll=0,0 / min-luma=0 / max-luma=1023 / log2-max-poc-lsb=8 / vui-timing-info / vui-hrd-info / slices=1 / no-opt-qp-pps / no-opt-ref-list-length-pps / no-multi-pass-opt-rps / scenecut-bias=0.05 / no-opt-cu-delta-qp / no-aq-motion / no-hdr10 / no-hdr10-opt / no-dhdr10-opt / no-idr-recovery-sei / analysis-reuse-level=0 / analysis-save-reuse-level=0 / analysis-load-reuse-level=0 / scale-factor=0 / refine-intra=0 / refine-inter=0 / refine-mv=1 / refine-ctu-distortion=0 / no-limit-sao / ctu-info=0 / no-lowpass-dct / refine-analysis-type=0 / copy-pic=1 / max-ausize-factor=1.0 / no-dynamic-refine / no-single-sei / no-hevc-aq / no-svt / no-field / qp-adaptation-range=1.00 / scenecut-aware-qp=0 / conformance-window-offsets / right=0 / bottom=0 / decoder-max-rate=0 / no-vbv-live-multi-pass / no-mcstf / no-sbrc
Language : English (US)
Default : No
Forced : No
Audio
Format : E-AC-3
Format/Info : Enhanced AC-3
Commercial name : Dolby Digital Plus
Format settings : Dolby Surround EX
Codec ID : A_EAC3
Duration : 2 h 0 min
Bit rate mode : Constant
Bit rate : 768 kb/s
Channel(s) : 8 channels
Channel layout : L R C LFE Ls Rs Lb Rb
Sampling rate : 48.0 kHz
Frame rate : 31.250 FPS (1536 SPF)
Compression mode : Lossy
Stream size : 661 MiB (12%)
Title : Surround 7.1
Language : English (US)
Service kind : Complete Main
Default : No
Forced : No
Subtitles
Text #1
ID : 3
Format : PGS
Muxing mode : zlib
Codec ID : S_HDMV/PGS
Codec ID/Info : Picture based subtitle format used on BDs/HD-DVDs
Duration : 1 h 47 min
Bit rate : 38.2 kb/s
Frame rate : 0.409 FPS
Count of elements : 2626
Stream size : 29.3 MiB (1%)
Language : English (US)
Default : No
Forced : No
Text #2
ID : 4
Format : PGS
Muxing mode : zlib
Codec ID : S_HDMV/PGS
Codec ID/Info : Picture based subtitle format used on BDs/HD-DVDs
Duration : 1 h 59 min
Bit rate : 51.1 kb/s
Frame rate : 0.524 FPS
Count of elements : 3744
Stream size : 43.6 MiB (1%)
Title : SDH
Language : English (US)
Default : No
Forced : No
Text #3
ID : 5
Format : PGS
Muxing mode : zlib
Codec ID : S_HDMV/PGS
Codec ID/Info : Picture based subtitle format used on BDs/HD-DVDs
Duration : 1 h 52 min
Bit rate : 36.4 kb/s
Frame rate : 0.403 FPS
Count of elements : 2724
Stream size : 29.4 MiB (1%)
Language : Spanish (ES)
Default : No
Forced : No
Text #4
ID : 6
Format : PGS
Muxing mode : zlib
Codec ID : S_HDMV/PGS
Codec ID/Info : Picture based subtitle format used on BDs/HD-DVDs
Duration : 1 h 52 min
Bit rate : 3 387 b/s
Frame rate : 0.032 FPS
Count of elements : 216
Stream size : 2.73 MiB (0%)
Title : Forced
Language : Spanish (ES)
Default : No
Forced : Yes
Chapters
00:00:00.000 : en-US:Chapter 01
00:07:21.357 : en-US:Chapter 02
00:17:44.438 : en-US:Chapter 03
00:24:01.231 : en-US:Chapter 04
00:34:43.164 : en-US:Chapter 05
00:41:41.373 : en-US:Chapter 06
00:49:37.307 : en-US:Chapter 07
00:56:07.739 : en-US:Chapter 08
01:04:16.894 : en-US:Chapter 09
01:08:11.670 : en-US:Chapter 10
01:12:43.317 : en-US:Chapter 11
01:20:31.785 : en-US:Chapter 12
01:26:37.692 : en-US:Chapter 13
01:33:49.624 : en-US:Chapter 14
01:40:57.551 : en-US:Chapter 15
01:46:29.257 : en-US:Chapter 16
01:49:05.871 : en-US:Chapter 17
01:50:29.881 : en-US:Chapter 18
Category: Movies
Size: 6.0 GB
Added: June 22, 2024, 2:02 p.m.
Peers: Seeders: 26, Leechers: 44,
Multiple Quality Available: M.Q.A
IMDB tt5177120
IMDB Title The Ministry of Ungentlemanly Warfare
IMDB Genre Action, Drama, War,
IMDB Runtime 2:00:00 Hours
IMDB Rating 6.9
Director Guy Ritchie
IMDB cast Henry Cavill, Alan Ritchson, Alex Pettyfer
IMDB plot The British military recruits a small group of highly skilled soldiers to strike against German forces behind enemy lines during World War II.

Comment below