:Search:

Godzilla Minus One 2023 Japanese 1080p Colorized Blu Ray REMUX DD

Torrent:
Trailer:
Similar Posts:
Name Uploaded Size Se Le Upl. by
Godzilla Minus One 2023 WebRip 720p x264 Hindi Tamil English AA 2024-06-11 1.2 GB 2 8 MoviesFD7
Godzilla Minus One 2023 WebRip 1080p x264 Hindi Tamil English D 2024-06-11 3.1 GB 2 7 MoviesFD7
Godzilla Minus One 2023 iTA JAP Bluray 2160p HEVC HDR x265 CYBER 2024-06-09 23.5 GB 47 32 eXpOrTeRICV
Godzilla Minus One 2023 iTA ENG Bluray 1080p x264 CYBER mkv 2024-06-09 12.1 GB 39 34 eXpOrTeRICV
Godzilla Minus One 2023 1080p NF WEB DL DDP5 1 H 264 PIX 2024-06-08 4.2 GB 10 9 Pixify
Godzilla Minus One 2023 AC3 5 1 ITA JPN 1080p H265 sub ita eng 2024-06-05 3.0 GB 14 52 robbyrs
Godzilla Minus One 2023 4K DUAL WEB DL HEVC x265 5 1 BONE 2024-06-05 4.0 GB 4 63 bone111
Godzilla Minus One 2023 2160p NF WEB DL MULTi DD 5 1 Atmos DV HDR 2024-06-02 14.1 GB 40 18 xCLuMsYx
Godzilla Minus One 2023 2160p NF WEB DL MULTi DD 5 1 Atmos H 265 2024-06-02 17.1 GB 30 13 xCLuMsYx
Godzilla Minus One 2023 1080p NF WEB DL MULTi DD 5 1 Atmos DV HDR 2024-06-02 4.1 GB 47 30 xCLuMsYx
Uploader: xCLuMsYx
Downloads: 14
Type: HD
Images:
Godzilla Minus One 2023 Japanese 1080p Colorized Blu Ray REMUX DD
Godzilla Minus One 2023 Japanese 1080p Colorized Blu Ray REMUX DD
Godzilla Minus One 2023 Japanese 1080p Colorized Blu Ray REMUX DD
Godzilla Minus One 2023 Japanese 1080p Colorized Blu Ray REMUX DD
Godzilla Minus One 2023 Japanese 1080p Colorized Blu Ray REMUX DD
Godzilla Minus One 2023 Japanese 1080p Colorized Blu Ray REMUX DD
Godzilla Minus One 2023 Japanese 1080p Colorized Blu Ray REMUX DD
Godzilla Minus One 2023 Japanese 1080p Colorized Blu Ray REMUX DD
Godzilla Minus One 2023 Japanese 1080p Colorized Blu Ray REMUX DD
Godzilla Minus One 2023 Japanese 1080p Colorized Blu Ray REMUX DD
Godzilla Minus One 2023 Japanese 1080p Colorized Blu Ray REMUX DD
Godzilla Minus One 2023 Japanese 1080p Colorized Blu Ray REMUX DD
Godzilla Minus One 2023 Japanese 1080p Colorized Blu Ray REMUX DD
Godzilla Minus One 2023 Japanese 1080p Colorized Blu Ray REMUX DD
Info Hash: B4FBDEF76A013D91E2FF66A5CBAEF370ACB42D80
Language: Japanese
Description: General
Unique ID : 34736649917388953345555084956083043714 (0x1A2209119221DF632CFC22993EE23D82)
Complete name : Godzilla.Minus.One.2023.Japanese.1080p.Colorized.Blu-Ray.REMUX.DD+5.1+TrueHD.7.1.Atmos.AVC-TheBiscuitMan.mkv
Format : Matroska
Format version : Version 4
File size : 24.9 GiB
Duration : 2 h 4 min
Overall bit rate mode : Variable
Overall bit rate : 28.6 Mb/s
Frame rate : 23.976 FPS
Writing application : mkvmerge v84.0 ('Sleeper') 64-bit
Writing library : libebml v1.4.5 + libmatroska v1.7.1
Video
ID : 1
Format : AVC
Format/Info : Advanced Video Codec
Format profile : [email protected]
Format settings : CABAC / 4 Ref Frames
Format settings, CABAC : Yes
Format settings, Reference frames : 4 frames
Format settings, Slice count : 4 slices per frame
Codec ID : V_MPEG4/ISO/AVC
Duration : 2 h 4 min
Bit rate mode : Variable
Bit rate : 23.6 Mb/s
Maximum bit rate : 27.0 Mb/s
Width : 1 920 pixels
Height : 1 080 pixels
Display aspect ratio : 16:9
Frame rate mode : Constant
Frame rate : 23.976 (24000/1001) FPS
Color space : YUV
Chroma subsampling : 4:2:0
Bit depth : 8 bits
Scan type : Progressive
Bits/(Pixel*Frame) : 0.475
Time code of first frame : 00:59:59:00
Stream size : 20.6 GiB (82%)
Default : Yes
Forced : No
Audio #1
ID : 2
Format : MLP FBA 16-ch
Format/Info : Meridian Lossless Packing FBA with 16-channel presentation
Commercial name : Dolby TrueHD with Dolby Atmos
Codec ID : A_TRUEHD
Duration : 2 h 4 min
Bit rate mode : Variable
Bit rate : 4 230 kb/s
Maximum bit rate : 8 556 kb/s
Channel(s) : 8 channels
Channel layout : L R C LFE Ls Rs Lb Rb
Sampling rate : 48.0 kHz
Frame rate : 1 200.000 FPS (40 SPF)
Compression mode : Lossless
Stream size : 3.68 GiB (15%)
Title : TrueHD.7.1.Atmos
Language : Japanese
Default : Yes
Forced : No
Number of dynamic objects : 11
Bed channel count : 1 channel
Bed channel configuration : LFE
mixlevel : 80 dB
ltrtcmixlev : 3.0 dB
ltrtsurmixlev : 3.0 dB
lorocmixlev : 3.0 dB
lorosurmixlev : 3.0 dB
Audio #2
ID : 3
Format : E-AC-3
Format/Info : Enhanced AC-3
Commercial name : Dolby Digital Plus
Codec ID : A_EAC3
Duration : 2 h 4 min
Bit rate mode : Constant
Bit rate : 640 kb/s
Channel(s) : 6 channels
Channel layout : L R C LFE Ls Rs
Sampling rate : 48.0 kHz
Frame rate : 31.250 FPS (1536 SPF)
Compression mode : Lossy
Stream size : 571 MiB (2%)
Title : DD+5.1
Language : Japanese
Service kind : Complete Main
Default : No
Forced : No
Dialog Normalization : -31 dB
dialnorm_Average : -31 dB
dialnorm_Minimum : -31 dB
dialnorm_Maximum : -31 dB
Text #1
ID : 4
Format : PGS
Muxing mode : zlib
Codec ID : S_HDMV/PGS
Codec ID/Info : Picture based subtitle format used on BDs/HD-DVDs
Duration : 2 h 3 min
Bit rate : 174 kb/s
Frame rate : 1.093 FPS
Count of elements : 8090
Stream size : 154 MiB (1%)
Language : Japanese
Default : Yes
Forced : No
Text #2
ID : 5
Format : UTF-8
Codec ID : S_TEXT/UTF8
Codec ID/Info : UTF-8 Plain Text
Duration : 1 h 57 min
Bit rate : 34 b/s
Frame rate : 0.158 FPS
Count of elements : 1111
Stream size : 29.8 KiB (0%)
Language : English
Default : No
Forced : No
Menu
00:00:00.000 : Chapter 01
00:13:21.509 : Chapter 02
00:20:07.665 : Chapter 03
00:30:31.580 : Chapter 04
00:44:53.566 : Chapter 05
00:52:28.020 : Chapter 06
01:05:42.272 : Chapter 07
01:14:52.279 : Chapter 08
01:17:59.717 : Chapter 09
01:25:42.012 : Chapter 10
01:36:21.025 : Chapter 11
01:58:58.798 : Chapter 12
Category: Movies
Size: 24.9 GB
Added: May 1, 2024, 8:42 a.m.
Peers: Seeders: 25, Leechers: 36,
Multiple Quality Available: M.Q.A
IMDB tt23289160
IMDB Title Godzilla Minus One
IMDB Genre Action, Adventure, Drama, Horror, Sci-Fi,
IMDB Runtime 2:04:00 Hours
IMDB Rating 8.3
Director Takashi Yamazaki
IMDB cast Minami Hamabe, Sakura Andô, Ryunosuke Kamiki
IMDB plot Post war Japan is at its lowest point when a new crisis emerges in the form of a giant monster, baptized in the horrific power of the atomic bomb.

Comment below