:Search:

Godzilla Minus One ゴジラ 1 0 2023 Japanese 720p AMZN WEB DL DD 5 1

Torrent:
Trailer:
Similar Posts:
Name Uploaded Size Se Le Upl. by
Godzilla Minus One 2023 WebRip 720p x264 Hindi Tamil English AA 2024-06-11 1.2 GB 2 8 MoviesFD7
Godzilla Minus One 2023 WebRip 1080p x264 Hindi Tamil English D 2024-06-11 3.1 GB 2 7 MoviesFD7
Godzilla Minus One 2023 iTA JAP Bluray 2160p HEVC HDR x265 CYBER 2024-06-09 23.5 GB 47 32 eXpOrTeRICV
Godzilla Minus One 2023 iTA ENG Bluray 1080p x264 CYBER mkv 2024-06-09 12.1 GB 39 34 eXpOrTeRICV
Godzilla Minus One 2023 1080p NF WEB DL DDP5 1 H 264 PIX 2024-06-08 4.2 GB 10 9 Pixify
Godzilla Minus One 2023 AC3 5 1 ITA JPN 1080p H265 sub ita eng 2024-06-05 3.0 GB 14 52 robbyrs
Godzilla Minus One 2023 4K DUAL WEB DL HEVC x265 5 1 BONE 2024-06-05 4.0 GB 4 63 bone111
Godzilla Minus One 2023 2160p NF WEB DL MULTi DD 5 1 Atmos DV HDR 2024-06-02 14.1 GB 40 18 xCLuMsYx
Godzilla Minus One 2023 2160p NF WEB DL MULTi DD 5 1 Atmos H 265 2024-06-02 17.1 GB 30 13 xCLuMsYx
Godzilla Minus One 2023 1080p NF WEB DL MULTi DD 5 1 Atmos DV HDR 2024-06-02 4.1 GB 47 30 xCLuMsYx
Uploader: xCLuMsYx
Downloads: 2
Type: HD
Images:
Godzilla Minus One ゴジラ 1 0 2023 Japanese 720p AMZN WEB DL DD 5 1
Godzilla Minus One ゴジラ 1 0 2023 Japanese 720p AMZN WEB DL DD 5 1
Godzilla Minus One ゴジラ 1 0 2023 Japanese 720p AMZN WEB DL DD 5 1
Godzilla Minus One ゴジラ 1 0 2023 Japanese 720p AMZN WEB DL DD 5 1
Godzilla Minus One ゴジラ 1 0 2023 Japanese 720p AMZN WEB DL DD 5 1
Godzilla Minus One ゴジラ 1 0 2023 Japanese 720p AMZN WEB DL DD 5 1
Godzilla Minus One ゴジラ 1 0 2023 Japanese 720p AMZN WEB DL DD 5 1
Godzilla Minus One ゴジラ 1 0 2023 Japanese 720p AMZN WEB DL DD 5 1
Godzilla Minus One ゴジラ 1 0 2023 Japanese 720p AMZN WEB DL DD 5 1
Godzilla Minus One ゴジラ 1 0 2023 Japanese 720p AMZN WEB DL DD 5 1
Godzilla Minus One ゴジラ 1 0 2023 Japanese 720p AMZN WEB DL DD 5 1
Godzilla Minus One ゴジラ 1 0 2023 Japanese 720p AMZN WEB DL DD 5 1
Godzilla Minus One ゴジラ 1 0 2023 Japanese 720p AMZN WEB DL DD 5 1
Godzilla Minus One ゴジラ 1 0 2023 Japanese 720p AMZN WEB DL DD 5 1
Info Hash: 5092C6E82AA2DE04169A5BFC7473E7E91E62D12E
Language: Japanese
Description: General
Unique ID : 224236305291031334673946475596138681658 (0xA8B2576C679F0522E3CABA4E3A10153A)
Complete name : Godzilla.Minus.One.ゴジラ-1.0.2023.Japanese.720p.AMZN.WEB-DL.DD+5.1.Atmos.H.264-TheBiscuitMan
Format : Matroska
Format version : Version 4
File size : 3.80 GiB
Duration : 2 h 4 min
Overall bit rate : 4 366 kb/s
Frame rate : 23.976 FPS
Writing application : mkvmerge v84.0 ('Sleeper') 64-bit
Writing library : libebml v1.4.5 + libmatroska v1.7.1
Video
ID : 1
Format : AVC
Format/Info : Advanced Video Codec
Format profile : [email protected]
Format settings : CABAC / 4 Ref Frames
Format settings, CABAC : Yes
Format settings, Reference frames : 4 frames
Codec ID : V_MPEG4/ISO/AVC
Duration : 2 h 4 min
Bit rate mode : Constant
Bit rate : 3 404 kb/s
Nominal bit rate : 6 000 kb/s
Width : 1 248 pixels
Height : 520 pixels
Display aspect ratio : 2.40:1
Frame rate mode : Constant
Frame rate : 23.976 (24000/1001) FPS
Color space : YUV
Chroma subsampling : 4:2:0
Bit depth : 8 bits
Scan type : Progressive
Bits/(Pixel*Frame) : 0.219
Stream size : 2.96 GiB (78%)
Default : Yes
Forced : No
Color range : Limited
Color primaries : BT.709
Transfer characteristics : BT.709
Matrix coefficients : BT.709
Audio #1
ID : 2
Format : E-AC-3 JOC
Format/Info : Enhanced AC-3 with Joint Object Coding
Commercial name : Dolby Digital Plus with Dolby Atmos
Codec ID : A_EAC3
Duration : 2 h 4 min
Bit rate mode : Constant
Bit rate : 768 kb/s
Channel(s) : 6 channels
Channel layout : L R C LFE Ls Rs
Sampling rate : 48.0 kHz
Frame rate : 31.250 FPS (1536 SPF)
Bit depth : 32 bits
Compression mode : Lossy
Stream size : 685 MiB (18%)
Language : Japanese
Service kind : Complete Main
Default : Yes
Forced : No
Complexity index : 16
Number of dynamic objects : 15
Bed channel count : 1 channel
Bed channel configuration : LFE
Dialog Normalization : -31 dB
compr : -0.28 dB
dmixmod : Lo/Ro
ltrtcmixlev : 0.0 dB
ltrtsurmixlev : -1.5 dB
lorocmixlev : 0.0 dB
lorosurmixlev : -1.5 dB
dialnorm_Average : -31 dB
dialnorm_Minimum : -31 dB
dialnorm_Maximum : -31 dB
Audio #2
ID : 3
Format : E-AC-3
Format/Info : Enhanced AC-3
Commercial name : Dolby Digital Plus
Codec ID : A_EAC3
Duration : 2 h 4 min
Bit rate mode : Constant
Bit rate : 192 kb/s
Channel(s) : 6 channels
Channel layout : L R C LFE Ls Rs
Sampling rate : 48.0 kHz
Frame rate : 31.250 FPS (1536 SPF)
Compression mode : Lossy
Stream size : 171 MiB (4%)
Language : Japanese
Service kind : Complete Main
Default : No
Forced : No
Dialog Normalization : -31 dB
compr : -0.28 dB
dialnorm_Average : -31 dB
dialnorm_Minimum : -31 dB
dialnorm_Maximum : -31 dB
Text #1
ID : 4
Format : UTF-8
Codec ID : S_TEXT/UTF8
Codec ID/Info : UTF-8 Plain Text
Duration : 1 h 56 min
Bit rate : 35 b/s
Frame rate : 0.151 FPS
Count of elements : 1060
Stream size : 30.7 KiB (0%)
Language : English
Default : Yes
Forced : No
Text #2
ID : 5
Format : UTF-8
Codec ID : S_TEXT/UTF8
Codec ID/Info : UTF-8 Plain Text
Duration : 1 h 56 min
Bit rate : 35 b/s
Frame rate : 0.160 FPS
Count of elements : 1119
Stream size : 30.2 KiB (0%)
Language : English
Default : No
Forced : No
Menu
00:00:00.000 : en:Godzilla
00:13:21.509 : en:Akiko
00:20:07.665 : en:Dangerous Work
00:30:31.580 : en:Buy Time
00:44:53.566 : en:The Person Who Ran Away
00:52:28.020 : en:Landing in Ginza
01:05:42.272 : en:Operation Wadatsumi
01:14:52.279 : en:My War
01:17:59.717 : en:Phantom Fighter
01:25:42.012 : en:For the Future
01:36:21.025 : en:Start of Operation
01:58:58.798 : en:End Credits
Category: Movies
Size: 3.8 GB
Added: May 4, 2024, 12:10 p.m.
Peers: Seeders: 17, Leechers: 47,
Multiple Quality Available: M.Q.A
IMDB tt23289160
IMDB Title Godzilla Minus One
IMDB Genre Action, Adventure, Drama, Horror, Sci-Fi,
IMDB Runtime 2:04:00 Hours
IMDB Rating 8.3
Director Takashi Yamazaki
IMDB cast Minami Hamabe, Sakura Andô, Ryunosuke Kamiki
IMDB plot Post war Japan is at its lowest point when a new crisis emerges in the form of a giant monster, baptized in the horrific power of the atomic bomb.

Comment below