:Search:

Godzilla Minus One 2023 1080p NF WEB DL MULTi DD 5 1 Atmos DV HDR

Torrent:
Trailer:
Similar Posts:
Name Uploaded Size Se Le Upl. by
Godzilla Minus One 2023 1080p WEB DL DD5 1 x265 PANAM 2024-07-10 4.9 GB 4 14 logi
Godzilla Minus One 2023 1080p NF WEB DL MULTi DD 5 1 Atmos JAP ENG HI… 2024-07-06 7.3 GB 9 6 CapedBaldy69
Godzilla Minus One 2023 1080p NF WEB DL MULTi DD 5 1 Atmos DV HDR JAP… 2024-07-06 4.1 GB 10 4 CapedBaldy69
Godzilla Minus One 2023 2160p NF WEB DL MULTi DD 5 1 Atmos JAP ENG HI… 2024-07-06 17.1 GB 50 17 CapedBaldy69
Godzilla Minus One 2023 2160p NF WEB DL MULTi DD 5 1 Atmos DV HDR JAP… 2024-07-06 14.1 GB 15 26 CapedBaldy69
Godzilla Minus One 2023 2160p DV HDR10Plus Ai Enhanced H265 TrueHD At… 2024-07-06 19.8 GB 6 18 chesley96
Godzilla Minus One 2023 WebRip 720p x264 Hindi Tamil English AA 2024-06-11 1.2 GB 2 8 MoviesFD7
Godzilla Minus One 2023 WebRip 1080p x264 Hindi Tamil English D 2024-06-11 3.1 GB 2 7 MoviesFD7
Godzilla Minus One 2023 iTA JAP Bluray 2160p HEVC HDR x265 CYBER 2024-06-09 23.5 GB 47 32 eXpOrTeRICV
Godzilla Minus One 2023 iTA ENG Bluray 1080p x264 CYBER mkv 2024-06-09 12.1 GB 39 34 eXpOrTeRICV
Uploader: xCLuMsYx
Type: HEVC/x265
Images:
Godzilla Minus One 2023 1080p NF WEB DL MULTi DD 5 1 Atmos DV HDR
Godzilla Minus One 2023 1080p NF WEB DL MULTi DD 5 1 Atmos DV HDR
Godzilla Minus One 2023 1080p NF WEB DL MULTi DD 5 1 Atmos DV HDR
Godzilla Minus One 2023 1080p NF WEB DL MULTi DD 5 1 Atmos DV HDR
Godzilla Minus One 2023 1080p NF WEB DL MULTi DD 5 1 Atmos DV HDR
Godzilla Minus One 2023 1080p NF WEB DL MULTi DD 5 1 Atmos DV HDR
Godzilla Minus One 2023 1080p NF WEB DL MULTi DD 5 1 Atmos DV HDR
Godzilla Minus One 2023 1080p NF WEB DL MULTi DD 5 1 Atmos DV HDR
Godzilla Minus One 2023 1080p NF WEB DL MULTi DD 5 1 Atmos DV HDR
Godzilla Minus One 2023 1080p NF WEB DL MULTi DD 5 1 Atmos DV HDR
Godzilla Minus One 2023 1080p NF WEB DL MULTi DD 5 1 Atmos DV HDR
Godzilla Minus One 2023 1080p NF WEB DL MULTi DD 5 1 Atmos DV HDR
Godzilla Minus One 2023 1080p NF WEB DL MULTi DD 5 1 Atmos DV HDR
Godzilla Minus One 2023 1080p NF WEB DL MULTi DD 5 1 Atmos DV HDR
Info Hash: CDC36F9D01A3F41F950C29CD501A438D4994874C
Language: English
Description: General
Unique ID : 91174313035815947849193074644364786623 (0x449788B1D453BB64D71DECDDEC037BBF)
Complete name : Godzilla.Minus.One.2023.1080p.NF.WEB-DL.MULTi.DD+5.1.Atmos.DV-HDR.H.265-TheBiscuitMan.mkv
Format : Matroska
Format version : Version 4
File size : 4.08 GiB
Duration : 2 h 6 min
Overall bit rate : 4 622 kb/s
Frame rate : 23.976 FPS
Writing application : mkvmerge v84.0 ('Sleeper') 64-bit
Writing library : libebml v1.4.5 + libmatroska v1.7.1
Video
ID : 1
Format : HEVC
Format/Info : High Efficiency Video Coding
Format profile : Main 10@L4@Main
HDR format : Dolby Vision, Version 1.0, Profile 8, dvhe.08.06, BL+RPU, no metadata compression, HDR10 compatible / SMPTE ST 2086, Version HDR10, HDR10 compatible
Codec ID : V_MPEGH/ISO/HEVC
Duration : 2 h 6 min
Bit rate : 1 286 kb/s
Width : 1 920 pixels
Height : 1 080 pixels
Display aspect ratio : 16:9
Frame rate mode : Constant
Frame rate : 23.976 (24000/1001) FPS
Color space : YUV
Chroma subsampling : 4:2:0
Bit depth : 10 bits
Bits/(Pixel*Frame) : 0.026
Stream size : 1.14 GiB (28%)
Default : Yes
Forced : No
Color range : Limited
Color primaries : BT.2020
Transfer characteristics : PQ
Matrix coefficients : BT.2020 non-constant
Mastering display color primaries : Display P3
Mastering display luminance : min: 0.0001 cd/m2, max: 1000 cd/m2
Maximum Content Light Level : 972 cd/m2
Maximum Frame-Average Light Level : 511 cd/m2
Audio #1
ID : 2
Format : E-AC-3 JOC
Format/Info : Enhanced AC-3 with Joint Object Coding
Commercial name : Dolby Digital Plus with Dolby Atmos
Codec ID : A_EAC3
Duration : 2 h 6 min
Bit rate mode : Constant
Bit rate : 768 kb/s
Channel(s) : 6 channels
Channel layout : L R C LFE Ls Rs
Sampling rate : 48.0 kHz
Frame rate : 31.250 FPS (1536 SPF)
Compression mode : Lossy
Delay relative to video : -3 ms
Stream size : 695 MiB (17%)
Language : Japanese
Service kind : Complete Main
Default : Yes
Forced : No
Complexity index : 16
Number of dynamic objects : 15
Bed channel count : 1 channel
Bed channel configuration : LFE
Dialog Normalization : -24 dB
compr : -0.28 dB
dialnorm_Average : -24 dB
dialnorm_Minimum : -24 dB
dialnorm_Maximum : -24 dB
Audio #2
ID : 3
Format : E-AC-3
Format/Info : Enhanced AC-3
Commercial name : Dolby Digital Plus
Codec ID : A_EAC3
Duration : 2 h 6 min
Bit rate mode : Constant
Bit rate : 640 kb/s
Channel(s) : 6 channels
Channel layout : L R C LFE Ls Rs
Sampling rate : 48.0 kHz
Frame rate : 31.250 FPS (1536 SPF)
Compression mode : Lossy
Delay relative to video : -3 ms
Stream size : 579 MiB (14%)
Language : English
Service kind : Complete Main
Default : No
Forced : No
Dialog Normalization : -27 dB
compr : -0.28 dB
dialnorm_Average : -27 dB
dialnorm_Minimum : -27 dB
dialnorm_Maximum : -27 dB
Audio #3
ID : 4
Format : E-AC-3
Format/Info : Enhanced AC-3
Commercial name : Dolby Digital Plus
Codec ID : A_EAC3
Duration : 2 h 6 min
Bit rate mode : Constant
Bit rate : 640 kb/s
Channel(s) : 6 channels
Channel layout : L R C LFE Ls Rs
Sampling rate : 48.0 kHz
Frame rate : 31.250 FPS (1536 SPF)
Compression mode : Lossy
Delay relative to video : -3 ms
Stream size : 579 MiB (14%)
Language : Hindi
Service kind : Complete Main
Default : No
Forced : No
Dialog Normalization : -27 dB
compr : -0.28 dB
dialnorm_Average : -27 dB
dialnorm_Minimum : -27 dB
dialnorm_Maximum : -27 dB
Audio #4
ID : 5
Format : E-AC-3
Format/Info : Enhanced AC-3
Commercial name : Dolby Digital Plus
Codec ID : A_EAC3
Duration : 2 h 6 min
Bit rate mode : Constant
Bit rate : 640 kb/s
Channel(s) : 6 channels
Channel layout : L R C LFE Ls Rs
Sampling rate : 48.0 kHz
Frame rate : 31.250 FPS (1536 SPF)
Compression mode : Lossy
Delay relative to video : -3 ms
Stream size : 579 MiB (14%)
Language : Tamil
Service kind : Complete Main
Default : No
Forced : No
Dialog Normalization : -27 dB
compr : -0.28 dB
dialnorm_Average : -27 dB
dialnorm_Minimum : -27 dB
dialnorm_Maximum : -27 dB
Audio #5
ID : 6
Format : E-AC-3
Format/Info : Enhanced AC-3
Commercial name : Dolby Digital Plus
Codec ID : A_EAC3
Duration : 2 h 6 min
Bit rate mode : Constant
Bit rate : 640 kb/s
Channel(s) : 6 channels
Channel layout : L R C LFE Ls Rs
Sampling rate : 48.0 kHz
Frame rate : 31.250 FPS (1536 SPF)
Compression mode : Lossy
Delay relative to video : -3 ms
Stream size : 579 MiB (14%)
Language : Turkish
Service kind : Complete Main
Default : No
Forced : No
Dialog Normalization : -27 dB
compr : -0.28 dB
dialnorm_Average : -27 dB
dialnorm_Minimum : -27 dB
dialnorm_Maximum : -27 dB
Text #1
ID : 7
Format : UTF-8
Codec ID : S_TEXT/UTF8
Codec ID/Info : UTF-8 Plain Text
Duration : 2 h 2 min
Bit rate : 59 b/s
Frame rate : 0.150 FPS
Count of elements : 1105
Stream size : 53.8 KiB (0%)
Language : Arabic
Default : No
Forced : No
Text #2
ID : 8
Format : UTF-8
Codec ID : S_TEXT/UTF8
Codec ID/Info : UTF-8 Plain Text
Duration : 2 h 3 min
Bit rate : 33 b/s
Frame rate : 0.149 FPS
Count of elements : 1105
Stream size : 30.1 KiB (0%)
Language : Croatian
Default : No
Forced : No
Text #3
ID : 9
Format : UTF-8
Codec ID : S_TEXT/UTF8
Codec ID/Info : UTF-8 Plain Text
Duration : 2 h 4 min
Bit rate : 36 b/s
Frame rate : 0.153 FPS
Count of elements : 1142
Stream size : 33.2 KiB (0%)
Language : Czech
Default : No
Forced : No
Text #4
ID : 10
Format : UTF-8
Codec ID : S_TEXT/UTF8
Codec ID/Info : UTF-8 Plain Text
Duration : 1 h 57 min
Bit rate : 47 b/s
Frame rate : 0.183 FPS
Count of elements : 1288
Stream size : 40.6 KiB (0%)
Title : [SDH]
Language : Czech
Default : No
Forced : No
Text #5
ID : 11
Format : UTF-8
Codec ID : S_TEXT/UTF8
Codec ID/Info : UTF-8 Plain Text
Duration : 2 h 4 min
Bit rate : 38 b/s
Frame rate : 0.145 FPS
Count of elements : 1080
Stream size : 34.7 KiB (0%)
Language : Danish
Default : No
Forced : No
Text #6
ID : 12
Format : UTF-8
Codec ID : S_TEXT/UTF8
Codec ID/Info : UTF-8 Plain Text
Duration : 2 h 4 min
Bit rate : 37 b/s
Frame rate : 0.146 FPS
Count of elements : 1090
Stream size : 34.0 KiB (0%)
Language : Dutch
Default : No
Forced : No
Text #7
ID : 13
Format : UTF-8
Codec ID : S_TEXT/UTF8
Codec ID/Info : UTF-8 Plain Text
Duration : 1 h 57 min
Bit rate : 51 b/s
Frame rate : 0.238 FPS
Count of elements : 1669
Stream size : 44.3 KiB (0%)
Language : English
Default : No
Forced : No
Text #8
ID : 14
Format : UTF-8
Codec ID : S_TEXT/UTF8
Codec ID/Info : UTF-8 Plain Text
Duration : 2 h 4 min
Bit rate : 33 b/s
Frame rate : 0.148 FPS
Count of elements : 1107
Stream size : 30.3 KiB (0%)
Language : English
Default : No
Forced : No
Text #9
ID : 15
Format : UTF-8
Codec ID : S_TEXT/UTF8
Codec ID/Info : UTF-8 Plain Text
Duration : 2 h 4 min
Bit rate : 60 b/s
Frame rate : 0.238 FPS
Count of elements : 1771
Stream size : 55.3 KiB (0%)
Title : [SDH]
Language : English
Default : Yes
Forced : No
Text #10
ID : 16
Format : UTF-8
Codec ID : S_TEXT/UTF8
Codec ID/Info : UTF-8 Plain Text
Duration : 1 h 34 min
Bit rate : 0 b/s
Frame rate : 0.003 FPS
Count of elements : 18
Stream size : 523 Bytes (0%)
Title : [Forced]
Language : English
Default : No
Forced : Yes
Text #11
ID : 17
Format : UTF-8
Codec ID : S_TEXT/UTF8
Codec ID/Info : UTF-8 Plain Text
Duration : 2 h 4 min
Bit rate : 35 b/s
Frame rate : 0.150 FPS
Count of elements : 1121
Stream size : 32.2 KiB (0%)
Language : Finnish
Default : No
Forced : No
Text #12
ID : 18
Format : UTF-8
Codec ID : S_TEXT/UTF8
Codec ID/Info : UTF-8 Plain Text
Duration : 2 h 3 min
Bit rate : 39 b/s
Frame rate : 0.150 FPS
Count of elements : 1109
Stream size : 35.5 KiB (0%)
Language : Filipino
Default : No
Forced : No
Text #13
ID : 19
Format : UTF-8
Codec ID : S_TEXT/UTF8
Codec ID/Info : UTF-8 Plain Text
Duration : 1 h 58 min
Bit rate : 52 b/s
Frame rate : 0.187 FPS
Count of elements : 1326
Stream size : 45.8 KiB (0%)
Title : [SDH]
Language : Filipino
Default : No
Forced : No
Text #14
ID : 20
Format : UTF-8
Codec ID : S_TEXT/UTF8
Codec ID/Info : UTF-8 Plain Text
Duration : 2 h 4 min
Bit rate : 39 b/s
Frame rate : 0.145 FPS
Count of elements : 1084
Stream size : 35.7 KiB (0%)
Language : French
Default : No
Forced : No
Text #15
ID : 21
Format : UTF-8
Codec ID : S_TEXT/UTF8
Codec ID/Info : UTF-8 Plain Text
Duration : 1 h 58 min
Bit rate : 65 b/s
Frame rate : 0.238 FPS
Count of elements : 1689
Stream size : 57.1 KiB (0%)
Title : [SDH]
Language : French
Default : No
Forced : No
Text #16
ID : 22
Format : UTF-8
Codec ID : S_TEXT/UTF8
Codec ID/Info : UTF-8 Plain Text
Duration : 2 h 4 min
Bit rate : 45 b/s
Frame rate : 0.167 FPS
Count of elements : 1242
Stream size : 41.2 KiB (0%)
Language : German
Default : No
Forced : No
Text #17
ID : 23
Format : UTF-8
Codec ID : S_TEXT/UTF8
Codec ID/Info : UTF-8 Plain Text
Duration : 2 h 4 min
Bit rate : 63 b/s
Frame rate : 0.153 FPS
Count of elements : 1142
Stream size : 58.0 KiB (0%)
Language : Greek
Default : No
Forced : No
Text #18
ID : 24
Format : UTF-8
Codec ID : S_TEXT/UTF8
Codec ID/Info : UTF-8 Plain Text
Duration : 2 h 3 min
Bit rate : 54 b/s
Frame rate : 0.155 FPS
Count of elements : 1151
Stream size : 49.5 KiB (0%)
Language : Hebrew
Default : No
Forced : No
Text #19
ID : 25
Format : UTF-8
Codec ID : S_TEXT/UTF8
Codec ID/Info : UTF-8 Plain Text
Duration : 2 h 3 min
Bit rate : 38 b/s
Frame rate : 0.141 FPS
Count of elements : 1047
Stream size : 35.2 KiB (0%)
Language : Hungarian
Default : No
Forced : No
Text #20
ID : 26
Format : UTF-8
Codec ID : S_TEXT/UTF8
Codec ID/Info : UTF-8 Plain Text
Duration : 2 h 3 min
Bit rate : 41 b/s
Frame rate : 0.162 FPS
Count of elements : 1201
Stream size : 37.5 KiB (0%)
Title : [SDH]
Language : Hungarian
Default : No
Forced : No
Text #21
ID : 27
Format : UTF-8
Codec ID : S_TEXT/UTF8
Codec ID/Info : UTF-8 Plain Text
Duration : 2 h 3 min
Bit rate : 36 b/s
Frame rate : 0.150 FPS
Count of elements : 1107
Stream size : 32.6 KiB (0%)
Language : Indonesian
Default : No
Forced : No
Text #22
ID : 28
Format : UTF-8
Codec ID : S_TEXT/UTF8
Codec ID/Info : UTF-8 Plain Text
Duration : 1 h 58 min
Bit rate : 45 b/s
Frame rate : 0.178 FPS
Count of elements : 1264
Stream size : 39.5 KiB (0%)
Title : [SDH]
Language : Indonesian
Default : No
Forced : No
Text #23
ID : 29
Format : UTF-8
Codec ID : S_TEXT/UTF8
Codec ID/Info : UTF-8 Plain Text
Duration : 1 h 57 min
Bit rate : 49 b/s
Frame rate : 0.148 FPS
Count of elements : 1048
Stream size : 42.9 KiB (0%)
Language : Italian
Default : No
Forced : No
Text #24
ID : 30
Format : UTF-8
Codec ID : S_TEXT/UTF8
Codec ID/Info : UTF-8 Plain Text
Duration : 2 h 4 min
Bit rate : 38 b/s
Frame rate : 0.147 FPS
Count of elements : 1099
Stream size : 35.1 KiB (0%)
Title : [SDH]
Language : Italian
Default : No
Forced : No
Text #25
ID : 31
Format : UTF-8
Codec ID : S_TEXT/UTF8
Codec ID/Info : UTF-8 Plain Text
Duration : 2 h 4 min
Bit rate : 65 b/s
Frame rate : 0.233 FPS
Count of elements : 1734
Stream size : 59.2 KiB (0%)
Title : [SDH]
Language : Japanese
Default : No
Forced : No
Text #26
ID : 32
Format : UTF-8
Codec ID : S_TEXT/UTF8
Codec ID/Info : UTF-8 Plain Text
Duration : 31 min 38 s
Bit rate : 2 b/s
Frame rate : 0.009 FPS
Count of elements : 17
Stream size : 591 Bytes (0%)
Title : [Forced]
Language : Japanese
Default : No
Forced : Yes
Text #27
ID : 33
Format : UTF-8
Codec ID : S_TEXT/UTF8
Codec ID/Info : UTF-8 Plain Text
Duration : 2 h 3 min
Bit rate : 40 b/s
Frame rate : 0.164 FPS
Count of elements : 1213
Stream size : 36.8 KiB (0%)
Language : Korean
Default : No
Forced : No
Text #28
ID : 34
Format : UTF-8
Codec ID : S_TEXT/UTF8
Codec ID/Info : UTF-8 Plain Text
Duration : 2 h 3 min
Bit rate : 37 b/s
Frame rate : 0.150 FPS
Count of elements : 1114
Stream size : 33.7 KiB (0%)
Language : Malay
Default : No
Forced : No
Text #29
ID : 35
Format : UTF-8
Codec ID : S_TEXT/UTF8
Codec ID/Info : UTF-8 Plain Text
Duration : 2 h 4 min
Bit rate : 34 b/s
Frame rate : 0.150 FPS
Count of elements : 1120
Stream size : 31.0 KiB (0%)
Language : Norwegian Bokmal
Default : No
Forced : No
Text #30
ID : 36
Format : UTF-8
Codec ID : S_TEXT/UTF8
Codec ID/Info : UTF-8 Plain Text
Duration : 2 h 4 min
Bit rate : 37 b/s
Frame rate : 0.149 FPS
Count of elements : 1115
Stream size : 34.5 KiB (0%)
Language : Polish
Default : No
Forced : No
Text #31
ID : 37
Format : UTF-8
Codec ID : S_TEXT/UTF8
Codec ID/Info : UTF-8 Plain Text
Duration : 1 h 57 min
Bit rate : 45 b/s
Frame rate : 0.171 FPS
Count of elements : 1212
Stream size : 39.1 KiB (0%)
Title : [SDH]
Language : Polish
Default : No
Forced : No
Text #32
ID : 38
Format : UTF-8
Codec ID : S_TEXT/UTF8
Codec ID/Info : UTF-8 Plain Text
Duration : 2 h 3 min
Bit rate : 35 b/s
Frame rate : 0.149 FPS
Count of elements : 1102
Stream size : 32.2 KiB (0%)
Title : [European]
Language : Portuguese
Default : No
Forced : No
Text #33
ID : 39
Format : UTF-8
Codec ID : S_TEXT/UTF8
Codec ID/Info : UTF-8 Plain Text
Duration : 2 h 4 min
Bit rate : 41 b/s
Frame rate : 0.153 FPS
Count of elements : 1143
Stream size : 37.8 KiB (0%)
Title : [Brazilian]
Language : Portuguese (BR)
Default : No
Forced : No
Text #34
ID : 40
Format : UTF-8
Codec ID : S_TEXT/UTF8
Codec ID/Info : UTF-8 Plain Text
Duration : 2 h 4 min
Bit rate : 55 b/s
Frame rate : 0.245 FPS
Count of elements : 1829
Stream size : 50.7 KiB (0%)
Title : [Brazilian SDH]
Language : Portuguese (BR)
Default : No
Forced : No
Text #35
ID : 41
Format : UTF-8
Codec ID : S_TEXT/UTF8
Codec ID/Info : UTF-8 Plain Text
Duration : 2 h 3 min
Bit rate : 35 b/s
Frame rate : 0.149 FPS
Count of elements : 1102
Stream size : 32.3 KiB (0%)
Language : Romanian
Default : No
Forced : No
Text #36
ID : 42
Format : UTF-8
Codec ID : S_TEXT/UTF8
Codec ID/Info : UTF-8 Plain Text
Duration : 2 h 4 min
Bit rate : 64 b/s
Frame rate : 0.154 FPS
Count of elements : 1149
Stream size : 58.8 KiB (0%)
Language : Russian
Default : No
Forced : No
Text #37
ID : 43
Format : UTF-8
Codec ID : S_TEXT/UTF8
Codec ID/Info : UTF-8 Plain Text
Duration : 2 h 4 min
Bit rate : 40 b/s
Frame rate : 0.164 FPS
Count of elements : 1222
Stream size : 36.9 KiB (0%)
Language : Spanish
Default : No
Forced : No
Text #38
ID : 44
Format : UTF-8
Codec ID : S_TEXT/UTF8
Codec ID/Info : UTF-8 Plain Text
Duration : 1 h 57 min
Bit rate : 47 b/s
Frame rate : 0.156 FPS
Count of elements : 1099
Stream size : 41.2 KiB (0%)
Language : Spanish
Default : No
Forced : No
Text #39
ID : 45
Format : UTF-8
Codec ID : S_TEXT/UTF8
Codec ID/Info : UTF-8 Plain Text
Duration : 2 h 4 min
Bit rate : 54 b/s
Frame rate : 0.219 FPS
Count of elements : 1630
Stream size : 49.5 KiB (0%)
Title : [Latin SDH]
Language : Spanish
Default : No
Forced : No
Text #40
ID : 46
Format : UTF-8
Codec ID : S_TEXT/UTF8
Codec ID/Info : UTF-8 Plain Text
Duration : 2 h 4 min
Bit rate : 37 b/s
Frame rate : 0.145 FPS
Count of elements : 1084
Stream size : 34.4 KiB (0%)
Language : Spanish (ES)
Default : No
Forced : No
Text #41
ID : 47
Format : UTF-8
Codec ID : S_TEXT/UTF8
Codec ID/Info : UTF-8 Plain Text
Duration : 1 h 58 min
Bit rate : 44 b/s
Frame rate : 0.172 FPS
Count of elements : 1222
Stream size : 38.8 KiB (0%)
Title : [European SDH]
Language : Spanish (ES)
Default : No
Forced : No
Text #42
ID : 48
Format : UTF-8
Codec ID : S_TEXT/UTF8
Codec ID/Info : UTF-8 Plain Text
Duration : 2 h 4 min
Bit rate : 33 b/s
Frame rate : 0.150 FPS
Count of elements : 1120
Stream size : 30.3 KiB (0%)
Language : Swedish
Default : No
Forced : No
Text #43
ID : 49
Format : UTF-8
Codec ID : S_TEXT/UTF8
Codec ID/Info : UTF-8 Plain Text
Duration : 1 h 58 min
Bit rate : 1 b/s
Frame rate : 0.003 FPS
Count of elements : 24
Stream size : 1.64 KiB (0%)
Title : [Forced]
Language : Tamil
Default : No
Forced : Yes
Text #44
ID : 50
Format : UTF-8
Codec ID : S_TEXT/UTF8
Codec ID/Info : UTF-8 Plain Text
Duration : 2 h 3 min
Bit rate : 91 b/s
Frame rate : 0.150 FPS
Count of elements : 1109
Stream size : 82.3 KiB (0%)
Language : Thai
Default : No
Forced : No
Text #45
ID : 51
Format : UTF-8
Codec ID : S_TEXT/UTF8
Codec ID/Info : UTF-8 Plain Text
Duration : 2 h 3 min
Bit rate : 37 b/s
Frame rate : 0.144 FPS
Count of elements : 1063
Stream size : 33.5 KiB (0%)
Language : Turkish
Default : No
Forced : No
Text #46
ID : 52
Format : UTF-8
Codec ID : S_TEXT/UTF8
Codec ID/Info : UTF-8 Plain Text
Duration : 2 h 3 min
Bit rate : 50 b/s
Frame rate : 0.162 FPS
Count of elements : 1206
Stream size : 45.8 KiB (0%)
Title : [SDH]
Language : Turkish
Default : No
Forced : No
Text #47
ID : 53
Format : UTF-8
Codec ID : S_TEXT/UTF8
Codec ID/Info : UTF-8 Plain Text
Duration : 2 h 3 min
Bit rate : 58 b/s
Frame rate : 0.149 FPS
Count of elements : 1106
Stream size : 52.7 KiB (0%)
Language : Ukrainian
Default : No
Forced : No
Text #48
ID : 54
Format : UTF-8
Codec ID : S_TEXT/UTF8
Codec ID/Info : UTF-8 Plain Text
Duration : 2 h 3 min
Bit rate : 51 b/s
Frame rate : 0.150 FPS
Count of elements : 1113
Stream size : 46.3 KiB (0%)
Language : Vietnamese
Default : No
Forced : No
Text #49
ID : 55
Format : UTF-8
Codec ID : S_TEXT/UTF8
Codec ID/Info : UTF-8 Plain Text
Duration : 2 h 3 min
Bit rate : 31 b/s
Frame rate : 0.150 FPS
Count of elements : 1108
Stream size : 28.6 KiB (0%)
Title : [Simplified]
Language : Chinese (Simplified)
Default : No
Forced : No
Text #50
ID : 56
Format : UTF-8
Codec ID : S_TEXT/UTF8
Codec ID/Info : UTF-8 Plain Text
Duration : 2 h 3 min
Bit rate : 34 b/s
Frame rate : 0.159 FPS
Count of elements : 1176
Stream size : 31.3 KiB (0%)
Title : [Traditional]
Language : Chinese (Traditional)
Default : No
Forced : No
Menu
00:00:00.000 : en:Part 01
02:04:36.450 : en:Credits
Category: Movies
Size: 4.1 GB
Added: June 2, 2024, 10:11 p.m.
Peers: Seeders: 47, Leechers: 30,
Multiple Quality Available: M.Q.A
IMDB tt23289160
IMDB Title Godzilla Minus One
IMDB Genre Action, Adventure, Drama, Horror, Sci-Fi,
IMDB Runtime 2:04:00 Hours
IMDB Rating 8.3
Director Takashi Yamazaki
IMDB cast Minami Hamabe, Sakura Andô, Ryunosuke Kamiki
IMDB plot Post war Japan is at its lowest point when a new crisis emerges in the form of a giant monster, baptized in the horrific power of the atomic bomb.

Comment below