:Search:

Damsel 2024 1080p NF WEB DL MULTi DD 5 1 Atmos H 264 TheBiscuitMa

Torrent:
Trailer:
Similar Posts:
Name Uploaded Size Se Le Upl. by
Damsel 2024 1080p HD WEBRip 1 50GiB AAC x264 PortalGoods 2024-05-07 1.4 GB 20 42 PortalGoods
Damsel 2024 720 h264 Ac3 5 1 Ita Eng Sub Ita Eng MIRCrew 2024-05-07 2.0 GB 16 30 robbyrs
Damsel 2024 2160p 4K WEB x265 10bit AAC5 1 YTS 2024-04-24 4.9 GB 40 21 johnooo
Damsel 2024 Eng Fre Ger Ita Por Spa Cze Pol Ukr Hin Tam Tel 2160p WEB… 2024-04-02 21.1 GB 13 44 SGF
Damsel 2024 WEBRip 1080p HEVC HDR10 EAC3 Atmos OEP DE887065 mkv 2024-04-01 4.3 GB 34 21 OEP
Damsel 2024 1080p NF WEB DL HEVC x265 10 Bit DDP5 1 M Sub KINGDOM RG 2024-03-29 4.7 GB 4 35 johno
Damsel 2024 MULTI 2160p WEB DL DV HDR H265 AOC 2024-03-27 18.5 GB 4 68 atomicfusion
SOUNDTRACKS David Fleming Damsel Soundtrack from the Netflix Film 202… 2024-03-27 401.2 MB 4 11 eichbaum
Damsel 2024 NF WEBRip SDR 10Bit 1440p DDP5 1 Atmos HEVC 3Li 2024-03-26 6.2 GB 35 18 3Li
Damsel 2024 1080p ZIROBYTE 2024-03-25 1.5 GB 5 62 ZIROBYTE
Uploader: xCLuMsYx
Downloads: 1
Type: HD
Images:
Damsel 2024 1080p NF WEB DL MULTi DD 5 1 Atmos H 264 TheBiscuitMa
Damsel 2024 1080p NF WEB DL MULTi DD 5 1 Atmos H 264 TheBiscuitMa
Damsel 2024 1080p NF WEB DL MULTi DD 5 1 Atmos H 264 TheBiscuitMa
Damsel 2024 1080p NF WEB DL MULTi DD 5 1 Atmos H 264 TheBiscuitMa
Damsel 2024 1080p NF WEB DL MULTi DD 5 1 Atmos H 264 TheBiscuitMa
Damsel 2024 1080p NF WEB DL MULTi DD 5 1 Atmos H 264 TheBiscuitMa
Damsel 2024 1080p NF WEB DL MULTi DD 5 1 Atmos H 264 TheBiscuitMa
Damsel 2024 1080p NF WEB DL MULTi DD 5 1 Atmos H 264 TheBiscuitMa
Damsel 2024 1080p NF WEB DL MULTi DD 5 1 Atmos H 264 TheBiscuitMa
Damsel 2024 1080p NF WEB DL MULTi DD 5 1 Atmos H 264 TheBiscuitMa
Damsel 2024 1080p NF WEB DL MULTi DD 5 1 Atmos H 264 TheBiscuitMa
Damsel 2024 1080p NF WEB DL MULTi DD 5 1 Atmos H 264 TheBiscuitMa
Damsel 2024 1080p NF WEB DL MULTi DD 5 1 Atmos H 264 TheBiscuitMa
Damsel 2024 1080p NF WEB DL MULTi DD 5 1 Atmos H 264 TheBiscuitMa
Info Hash: 0DDF6A65A14F05A07C314F923910E1951C291206
Language: Arabic
Description: General
Unique ID : 20113637263518245734194924127625277642 (0xF21BEE195726D031ADFABDF7719F0CA)
Complete name : Damsel.2024.1080p.NF.WEB-DL.MULTi.DD+5.1.Atmos.H.264-TheBiscuitMan.mkv
Format : Matroska
Format version : Version 4
File size : 7.15 GiB
Duration : 1 h 49 min
Overall bit rate mode : Variable
Overall bit rate : 9 346 kb/s
Frame rate : 24.000 FPS
Writing application : mkvmerge v82.0 ('I'm The President') 64-bit
Writing library : libebml v1.4.5 + libmatroska v1.7.1
Video
ID : 1
Format : AVC
Format/Info : Advanced Video Codec
Format profile : High@L4
Format settings : CABAC / 4 Ref Frames
Format settings, CABAC : Yes
Format settings, Reference frames : 4 frames
Codec ID : V_MPEG4/ISO/AVC
Duration : 1 h 49 min
Bit rate mode : Variable
Bit rate : 6 653 kb/s
Maximum bit rate : 20.0 Mb/s
Width : 1 920 pixels
Height : 1 080 pixels
Display aspect ratio : 16:9
Frame rate mode : Constant
Frame rate : 24.000 FPS
Color space : YUV
Chroma subsampling : 4:2:0
Bit depth : 8 bits
Scan type : Progressive
Bits/(Pixel*Frame) : 0.134
Stream size : 5.09 GiB (71%)
Writing library : x264 core 148 r2727 7d026e8
Encoding settings : cabac=1 / ref=4 / deblock=1:0:0 / analyse=0x3:0x111 / me=umh / subme=10 / psy=1 / psy_rd=1.00:0.00 / mixed_ref=1 / me_range=120 / chroma_me=1 / trellis=2 / 8x8dct=1 / cqm=0 / deadzone=21,11 / fast_pskip=1 / chroma_qp_offset=-2 / threads=6 / lookahead_threads=1 / sliced_threads=0 / nr=0 / decimate=1 / interlaced=0 / bluray_compat=0 / stitchable=1 / constrained_intra=0 / bframes=16 / b_pyramid=2 / b_adapt=2 / b_bias=0 / direct=3 / weightb=1 / open_gop=0 / weightp=2 / keyint=240 / keyint_min=121 / scenecut=0 / intra_refresh=0 / rc_lookahead=240 / rc=crf / mbtree=1 / crf=17.0 / qcomp=0.50 / qpmin=6 / qpmax=51 / qpstep=4 / vbv_maxrate=20000 / vbv_bufsize=25000 / crf_max=0.0 / nal_hrd=vbr / filler=0 / ip_ratio=1.40 / aq=1:0.80
Default : Yes
Forced : No
Audio #1
ID : 2
Format : E-AC-3 JOC
Format/Info : Enhanced AC-3 with Joint Object Coding
Commercial name : Dolby Digital Plus with Dolby Atmos
Codec ID : A_EAC3
Duration : 1 h 49 min
Bit rate mode : Constant
Bit rate : 768 kb/s
Channel(s) : 6 channels
Channel layout : L R C LFE Ls Rs
Sampling rate : 48.0 kHz
Frame rate : 31.250 FPS (1536 SPF)
Compression mode : Lossy
Stream size : 602 MiB (8%)
Language : English
Service kind : Complete Main
Default : Yes
Forced : No
Complexity index : 16
Number of dynamic objects : 15
Bed channel count : 1 channel
Bed channel configuration : LFE
Audio #2
ID : 3
Format : E-AC-3
Format/Info : Enhanced AC-3
Commercial name : Dolby Digital Plus
Codec ID : A_EAC3
Duration : 1 h 49 min
Bit rate mode : Constant
Bit rate : 640 kb/s
Channel(s) : 6 channels
Channel layout : L R C LFE Ls Rs
Sampling rate : 48.0 kHz
Frame rate : 31.250 FPS (1536 SPF)
Compression mode : Lossy
Stream size : 502 MiB (7%)
Language : Hindi
Service kind : Complete Main
Default : No
Forced : No
Audio #3
ID : 4
Format : E-AC-3
Format/Info : Enhanced AC-3
Commercial name : Dolby Digital Plus
Codec ID : A_EAC3
Duration : 1 h 49 min
Bit rate mode : Constant
Bit rate : 640 kb/s
Channel(s) : 6 channels
Channel layout : L R C LFE Ls Rs
Sampling rate : 48.0 kHz
Frame rate : 31.250 FPS (1536 SPF)
Compression mode : Lossy
Stream size : 502 MiB (7%)
Language : Tamil
Service kind : Complete Main
Default : No
Forced : No
Audio #4
ID : 5
Format : E-AC-3
Format/Info : Enhanced AC-3
Commercial name : Dolby Digital Plus
Codec ID : A_EAC3
Duration : 1 h 49 min
Bit rate mode : Constant
Bit rate : 640 kb/s
Channel(s) : 6 channels
Channel layout : L R C LFE Ls Rs
Sampling rate : 48.0 kHz
Frame rate : 31.250 FPS (1536 SPF)
Compression mode : Lossy
Stream size : 502 MiB (7%)
Language : Telugu
Service kind : Complete Main
Default : No
Forced : No
Text #1
ID : 6
Format : UTF-8
Codec ID : S_TEXT/UTF8
Codec ID/Info : UTF-8 Plain Text
Duration : 1 h 46 min
Bit rate : 37 b/s
Frame rate : 0.107 FPS
Count of elements : 686
Stream size : 29.3 KiB (0%)
Language : Arabic
Default : No
Forced : No
Text #2
ID : 7
Format : UTF-8
Codec ID : S_TEXT/UTF8
Codec ID/Info : UTF-8 Plain Text
Duration : 1 h 46 min
Bit rate : 20 b/s
Frame rate : 0.105 FPS
Count of elements : 673
Stream size : 15.9 KiB (0%)
Language : Basque
Default : No
Forced : No
Text #3
ID : 8
Format : UTF-8
Codec ID : S_TEXT/UTF8
Codec ID/Info : UTF-8 Plain Text
Duration : 1 h 46 min
Bit rate : 20 b/s
Frame rate : 0.106 FPS
Count of elements : 677
Stream size : 16.2 KiB (0%)
Language : Catalan
Default : No
Forced : No
Text #4
ID : 9
Format : UTF-8
Codec ID : S_TEXT/UTF8
Codec ID/Info : UTF-8 Plain Text
Duration : 1 h 46 min
Bit rate : 19 b/s
Frame rate : 0.106 FPS
Count of elements : 679
Stream size : 15.1 KiB (0%)
Language : Croatian
Default : No
Forced : No
Text #5
ID : 10
Format : UTF-8
Codec ID : S_TEXT/UTF8
Codec ID/Info : UTF-8 Plain Text
Duration : 1 h 46 min
Bit rate : 19 b/s
Frame rate : 0.106 FPS
Count of elements : 680
Stream size : 15.4 KiB (0%)
Language : Czech
Default : No
Forced : No
Text #6
ID : 11
Format : UTF-8
Codec ID : S_TEXT/UTF8
Codec ID/Info : UTF-8 Plain Text
Duration : 1 h 46 min
Bit rate : 19 b/s
Frame rate : 0.106 FPS
Count of elements : 681
Stream size : 15.6 KiB (0%)
Language : Danish
Default : No
Forced : No
Text #7
ID : 12
Format : UTF-8
Codec ID : S_TEXT/UTF8
Codec ID/Info : UTF-8 Plain Text
Duration : 1 h 46 min
Bit rate : 19 b/s
Frame rate : 0.097 FPS
Count of elements : 625
Stream size : 15.5 KiB (0%)
Language : Dutch
Default : No
Forced : No
Text #8
ID : 13
Format : UTF-8
Codec ID : S_TEXT/UTF8
Codec ID/Info : UTF-8 Plain Text
Duration : 1 h 43 min
Bit rate : 23 b/s
Frame rate : 0.113 FPS
Count of elements : 698
Stream size : 17.5 KiB (0%)
Language : English
Default : No
Forced : No
Text #9
ID : 14
Format : UTF-8
Codec ID : S_TEXT/UTF8
Codec ID/Info : UTF-8 Plain Text
Duration : 1 h 43 min
Bit rate : 28 b/s
Frame rate : 0.145 FPS
Count of elements : 898
Stream size : 21.8 KiB (0%)
Title : [SDH]
Language : English
Default : Yes
Forced : No
Text #10
ID : 15
Format : UTF-8
Codec ID : S_TEXT/UTF8
Codec ID/Info : UTF-8 Plain Text
Duration : 1 h 46 min
Bit rate : 20 b/s
Frame rate : 0.105 FPS
Count of elements : 676
Stream size : 15.8 KiB (0%)
Language : Finnish
Default : No
Forced : No
Text #11
ID : 16
Format : UTF-8
Codec ID : S_TEXT/UTF8
Codec ID/Info : UTF-8 Plain Text
Duration : 1 h 46 min
Bit rate : 20 b/s
Frame rate : 0.106 FPS
Count of elements : 681
Stream size : 16.3 KiB (0%)
Language : Filipino
Default : No
Forced : No
Text #12
ID : 17
Format : UTF-8
Codec ID : S_TEXT/UTF8
Codec ID/Info : UTF-8 Plain Text
Duration : 1 h 43 min
Bit rate : 27 b/s
Frame rate : 0.113 FPS
Count of elements : 700
Stream size : 20.7 KiB (0%)
Language : French
Default : No
Forced : No
Text #13
ID : 18
Format : UTF-8
Codec ID : S_TEXT/UTF8
Codec ID/Info : UTF-8 Plain Text
Duration : 1 h 2 min
Bit rate : 0 b/s
Frame rate : 0.002 FPS
Count of elements : 6
Stream size : 146 Bytes (0%)
Title : [Forced]
Language : French
Default : No
Forced : Yes
Text #14
ID : 19
Format : UTF-8
Codec ID : S_TEXT/UTF8
Codec ID/Info : UTF-8 Plain Text
Duration : 1 h 46 min
Bit rate : 20 b/s
Frame rate : 0.105 FPS
Count of elements : 672
Stream size : 16.0 KiB (0%)
Language : German
Default : No
Forced : No
Text #15
ID : 20
Format : UTF-8
Codec ID : S_TEXT/UTF8
Codec ID/Info : UTF-8 Plain Text
Duration : 1 h 46 min
Bit rate : 37 b/s
Frame rate : 0.106 FPS
Count of elements : 683
Stream size : 29.4 KiB (0%)
Language : Greek
Default : No
Forced : No
Text #16
ID : 21
Format : UTF-8
Codec ID : S_TEXT/UTF8
Codec ID/Info : UTF-8 Plain Text
Duration : 1 h 46 min
Bit rate : 20 b/s
Frame rate : 0.106 FPS
Count of elements : 683
Stream size : 16.0 KiB (0%)
Language : Galician
Default : No
Forced : No
Text #17
ID : 22
Format : UTF-8
Codec ID : S_TEXT/UTF8
Codec ID/Info : UTF-8 Plain Text
Duration : 1 h 46 min
Bit rate : 34 b/s
Frame rate : 0.107 FPS
Count of elements : 686
Stream size : 26.7 KiB (0%)
Language : Hebrew
Default : No
Forced : No
Text #18
ID : 23
Format : UTF-8
Codec ID : S_TEXT/UTF8
Codec ID/Info : UTF-8 Plain Text
Duration : 1 h 4 min
Bit rate : 0 b/s
Frame rate : 0.002 FPS
Count of elements : 8
Stream size : 179 Bytes (0%)
Title : [Forced]
Language : Hindi
Default : No
Forced : Yes
Text #19
ID : 24
Format : UTF-8
Codec ID : S_TEXT/UTF8
Codec ID/Info : UTF-8 Plain Text
Duration : 1 h 46 min
Bit rate : 20 b/s
Frame rate : 0.106 FPS
Count of elements : 678
Stream size : 15.8 KiB (0%)
Language : Hungarian
Default : No
Forced : No
Text #20
ID : 25
Format : UTF-8
Codec ID : S_TEXT/UTF8
Codec ID/Info : UTF-8 Plain Text
Duration : 1 h 46 min
Bit rate : 20 b/s
Frame rate : 0.106 FPS
Count of elements : 681
Stream size : 16.2 KiB (0%)
Language : Indonesian
Default : No
Forced : No
Text #21
ID : 26
Format : UTF-8
Codec ID : S_TEXT/UTF8
Codec ID/Info : UTF-8 Plain Text
Duration : 1 h 46 min
Bit rate : 21 b/s
Frame rate : 0.106 FPS
Count of elements : 681
Stream size : 16.8 KiB (0%)
Language : Italian
Default : No
Forced : No
Text #22
ID : 27
Format : UTF-8
Codec ID : S_TEXT/UTF8
Codec ID/Info : UTF-8 Plain Text
Duration : 1 h 46 min
Bit rate : 19 b/s
Frame rate : 0.104 FPS
Count of elements : 669
Stream size : 15.4 KiB (0%)
Language : Japanese
Default : No
Forced : No
Text #23
ID : 28
Format : UTF-8
Codec ID : S_TEXT/UTF8
Codec ID/Info : UTF-8 Plain Text
Duration : 1 h 46 min
Bit rate : 22 b/s
Frame rate : 0.106 FPS
Count of elements : 683
Stream size : 17.9 KiB (0%)
Language : Korean
Default : No
Forced : No
Text #24
ID : 29
Format : UTF-8
Codec ID : S_TEXT/UTF8
Codec ID/Info : UTF-8 Plain Text
Duration : 1 h 46 min
Bit rate : 21 b/s
Frame rate : 0.106 FPS
Count of elements : 677
Stream size : 16.6 KiB (0%)
Language : Malay
Default : No
Forced : No
Text #25
ID : 30
Format : UTF-8
Codec ID : S_TEXT/UTF8
Codec ID/Info : UTF-8 Plain Text
Duration : 1 h 46 min
Bit rate : 20 b/s
Frame rate : 0.106 FPS
Count of elements : 678
Stream size : 15.7 KiB (0%)
Language : Norwegian Bokmal
Default : No
Forced : No
Text #26
ID : 31
Format : UTF-8
Codec ID : S_TEXT/UTF8
Codec ID/Info : UTF-8 Plain Text
Duration : 1 h 46 min
Bit rate : 20 b/s
Frame rate : 0.106 FPS
Count of elements : 679
Stream size : 15.7 KiB (0%)
Language : Polish
Default : No
Forced : No
Text #27
ID : 32
Format : UTF-8
Codec ID : S_TEXT/UTF8
Codec ID/Info : UTF-8 Plain Text
Duration : 1 h 2 min
Bit rate : 0 b/s
Frame rate : 0.002 FPS
Count of elements : 6
Stream size : 121 Bytes (0%)
Title : [Forced]
Language : Polish
Default : No
Forced : Yes
Text #28
ID : 33
Format : UTF-8
Codec ID : S_TEXT/UTF8
Codec ID/Info : UTF-8 Plain Text
Duration : 1 h 46 min
Bit rate : 20 b/s
Frame rate : 0.106 FPS
Count of elements : 682
Stream size : 16.2 KiB (0%)
Title : [Brazilian]
Language : Portuguese (BR)
Default : No
Forced : No
Text #29
ID : 34
Format : UTF-8
Codec ID : S_TEXT/UTF8
Codec ID/Info : UTF-8 Plain Text
Duration : 1 h 2 min
Bit rate : 0 b/s
Frame rate : 0.002 FPS
Count of elements : 6
Stream size : 111 Bytes (0%)
Title : Brazilian [Forced]
Language : Portuguese (BR)
Default : No
Forced : Yes
Text #30
ID : 35
Format : UTF-8
Codec ID : S_TEXT/UTF8
Codec ID/Info : UTF-8 Plain Text
Duration : 1 h 46 min
Bit rate : 20 b/s
Frame rate : 0.106 FPS
Count of elements : 678
Stream size : 15.8 KiB (0%)
Language : Portuguese (PT)
Default : No
Forced : No
Text #31
ID : 36
Format : UTF-8
Codec ID : S_TEXT/UTF8
Codec ID/Info : UTF-8 Plain Text
Duration : 1 h 46 min
Bit rate : 21 b/s
Frame rate : 0.106 FPS
Count of elements : 679
Stream size : 16.5 KiB (0%)
Language : Romanian
Default : No
Forced : No
Text #32
ID : 37
Format : UTF-8
Codec ID : S_TEXT/UTF8
Codec ID/Info : UTF-8 Plain Text
Duration : 1 h 46 min
Bit rate : 35 b/s
Frame rate : 0.107 FPS
Count of elements : 686
Stream size : 27.9 KiB (0%)
Language : Russian
Default : No
Forced : No
Text #33
ID : 38
Format : UTF-8
Codec ID : S_TEXT/UTF8
Codec ID/Info : UTF-8 Plain Text
Duration : 1 h 46 min
Bit rate : 20 b/s
Frame rate : 0.106 FPS
Count of elements : 680
Stream size : 16.4 KiB (0%)
Language : Spanish (Latin America)
Default : No
Forced : No
Text #34
ID : 39
Format : UTF-8
Codec ID : S_TEXT/UTF8
Codec ID/Info : UTF-8 Plain Text
Duration : 1 h 46 min
Bit rate : 20 b/s
Frame rate : 0.105 FPS
Count of elements : 674
Stream size : 16.2 KiB (0%)
Language : Spanish (ES)
Default : No
Forced : No
Text #35
ID : 40
Format : UTF-8
Codec ID : S_TEXT/UTF8
Codec ID/Info : UTF-8 Plain Text
Duration : 1 h 46 min
Bit rate : 20 b/s
Frame rate : 0.106 FPS
Count of elements : 681
Stream size : 16.2 KiB (0%)
Language : Swedish
Default : No
Forced : No
Text #36
ID : 41
Format : UTF-8
Codec ID : S_TEXT/UTF8
Codec ID/Info : UTF-8 Plain Text
Duration : 1 h 46 min
Bit rate : 51 b/s
Frame rate : 0.107 FPS
Count of elements : 686
Stream size : 40.7 KiB (0%)
Language : Thai
Default : No
Forced : No
Text #37
ID : 42
Format : UTF-8
Codec ID : S_TEXT/UTF8
Codec ID/Info : UTF-8 Plain Text
Duration : 1 h 46 min
Bit rate : 21 b/s
Frame rate : 0.104 FPS
Count of elements : 664
Stream size : 16.8 KiB (0%)
Language : Turkish
Default : No
Forced : No
Text #38
ID : 43
Format : UTF-8
Codec ID : S_TEXT/UTF8
Codec ID/Info : UTF-8 Plain Text
Duration : 1 h 46 min
Bit rate : 36 b/s
Frame rate : 0.107 FPS
Count of elements : 686
Stream size : 28.7 KiB (0%)
Language : Ukrainian
Default : No
Forced : No
Text #39
ID : 44
Format : UTF-8
Codec ID : S_TEXT/UTF8
Codec ID/Info : UTF-8 Plain Text
Duration : 1 h 2 min
Bit rate : 0 b/s
Frame rate : 0.004 FPS
Count of elements : 14
Stream size : 420 Bytes (0%)
Title : [Forced]
Language : Ukrainian
Default : No
Forced : Yes
Text #40
ID : 45
Format : UTF-8
Codec ID : S_TEXT/UTF8
Codec ID/Info : UTF-8 Plain Text
Duration : 1 h 46 min
Bit rate : 27 b/s
Frame rate : 0.106 FPS
Count of elements : 681
Stream size : 21.6 KiB (0%)
Language : Vietnamese
Default : No
Forced : No
Text #41
ID : 46
Format : UTF-8
Codec ID : S_TEXT/UTF8
Codec ID/Info : UTF-8 Plain Text
Duration : 1 h 46 min
Bit rate : 20 b/s
Frame rate : 0.107 FPS
Count of elements : 686
Stream size : 15.8 KiB (0%)
Title : [Simplified]
Language : Chinese (Simplified)
Default : No
Forced : No
Text #42
ID : 47
Format : UTF-8
Codec ID : S_TEXT/UTF8
Codec ID/Info : UTF-8 Plain Text
Duration : 1 h 46 min
Bit rate : 17 b/s
Frame rate : 0.107 FPS
Count of elements : 686
Stream size : 13.6 KiB (0%)
Title : [Traditional]
Language : Chinese (Traditional)
Default : No
Forced : No
Menu
00:00:00.000 : en:Part 01
01:41:00.000 : en:Credits
Category: Movies
Size: 7.2 GB
Added: March 10, 2024, 9:40 p.m.
Peers: Seeders: 44, Leechers: 16,
Multiple Quality Available: M.Q.A
IMDB tt13452446
IMDB Title Damsel
IMDB Genre Action, Adventure, Fantasy,
IMDB Runtime 1:50:00 Hours
IMDB Rating 6.1
Director Juan Carlos Fresnadillo
IMDB cast Millie Bobby Brown, Ray Winstone, Angela Bassett
IMDB plot A dutiful damsel agrees to marry a handsome prince, only to find the royal family has recruited her as a sacrifice to repay an ancient debt.

Comment below