:Search:

Damsel 2024 1080p NF WEB DL x265 HEVC 10bit EAC3 Atmos 5 1 Gho

Torrent:
Thumbnail:
Trailer:
Similar Posts:
Name Uploaded Size Se Le Upl. by
Damsel 2024 1080p HD WEBRip 1 50GiB AAC x264 PortalGoods 2024-05-07 1.4 GB 20 42 PortalGoods
Damsel 2024 720 h264 Ac3 5 1 Ita Eng Sub Ita Eng MIRCrew 2024-05-07 2.0 GB 16 30 robbyrs
Damsel 2024 2160p 4K WEB x265 10bit AAC5 1 YTS 2024-04-24 4.9 GB 40 21 johnooo
Damsel 2024 Eng Fre Ger Ita Por Spa Cze Pol Ukr Hin Tam Tel 2160p WEB… 2024-04-02 21.1 GB 13 44 SGF
Damsel 2024 WEBRip 1080p HEVC HDR10 EAC3 Atmos OEP DE887065 mkv 2024-04-01 4.3 GB 34 21 OEP
Damsel 2024 1080p NF WEB DL HEVC x265 10 Bit DDP5 1 M Sub KINGDOM RG 2024-03-29 4.7 GB 4 35 johno
Damsel 2024 MULTI 2160p WEB DL DV HDR H265 AOC 2024-03-27 18.5 GB 4 68 atomicfusion
SOUNDTRACKS David Fleming Damsel Soundtrack from the Netflix Film 202… 2024-03-27 401.2 MB 4 11 eichbaum
Damsel 2024 NF WEBRip SDR 10Bit 1440p DDP5 1 Atmos HEVC 3Li 2024-03-26 6.2 GB 35 18 3Li
Damsel 2024 1080p ZIROBYTE 2024-03-25 1.5 GB 5 62 ZIROBYTE
Uploader: QxR
Downloads: 11
Type: HEVC/x265
Genre: Fantasy, Action, Adventure
Images:
Damsel 2024 1080p NF WEB DL x265 HEVC 10bit EAC3 Atmos 5 1 Gho
Damsel 2024 1080p NF WEB DL x265 HEVC 10bit EAC3 Atmos 5 1 Gho
Damsel 2024 1080p NF WEB DL x265 HEVC 10bit EAC3 Atmos 5 1 Gho
Damsel 2024 1080p NF WEB DL x265 HEVC 10bit EAC3 Atmos 5 1 Gho
Damsel 2024 1080p NF WEB DL x265 HEVC 10bit EAC3 Atmos 5 1 Gho
Damsel 2024 1080p NF WEB DL x265 HEVC 10bit EAC3 Atmos 5 1 Gho
Damsel 2024 1080p NF WEB DL x265 HEVC 10bit EAC3 Atmos 5 1 Gho
Damsel 2024 1080p NF WEB DL x265 HEVC 10bit EAC3 Atmos 5 1 Gho
Info Hash: A666F06E6BBC9CB5F4327D874172100AA7E18A39
Language: English
Description: General
Format : Matroska
Format version : Version 4
File size : 3.66 GiB
Duration : 1 h 49 min
Overall bit rate : 4 776 kb/s
Frame rate : 24.000 FPS
Encoded date : 2024-03-13 03:43:52 UTC
Writing application : mkvmerge v83.0 ('Circle Of Friends') 64-bit
Writing library : libebml v1.4.5 + libmatroska v1.7.1
Attachments : Damsel (2024) (1080p NF WEB-DL x265 HEVC 10bit EAC3 5.1 Ghost).jpg
Video
Format : HEVC
Format/Info : High Efficiency Video Coding
Format profile : Main 10@L4@Main
Codec ID : V_MPEGH/ISO/HEVC
Duration : 1 h 49 min
Bit rate : 4 000 kb/s
Width : 1 920 pixels
Height : 800 pixels
Display aspect ratio : 2.40:1
Frame rate mode : Constant
Frame rate : 24.000 FPS
Color space : YUV
Chroma subsampling : 4:2:0
Bit depth : 10 bits
Bits/(Pixel*Frame) : 0.109
Stream size : 3.06 GiB (84%)
Writing library : x265 3.5+153+15-fc339385e:[Windows][MSVC 1937][64 bit] 10bit
Encoding settings : cpuid=1111039 / frame-threads=5 / numa-pools=32 / wpp / no-pmode / no-pme / no-psnr / no-ssim / log-level=2 / input-csp=1 / input-res=1920x800 / interlace=0 / total-frames=157768 / level-idc=0 / high-tier=1 / uhd-bd=0 / ref=5 / no-allow-non-conformance / no-repeat-headers / annexb / no-aud / no-eob / no-eos / no-hrd / info / hash=0 / temporal-layers=0 / open-gop / min-keyint=24 / keyint=250 / gop-lookahead=0 / bframes=8 / b-adapt=2 / b-pyramid / bframe-bias=0 / rc-lookahead=80 / lookahead-slices=0 / scenecut=40 / no-hist-scenecut / radl=0 / no-splice / no-intra-refresh / ctu=64 / min-cu-size=8 / no-rect / no-amp / max-tu-size=32 / tu-inter-depth=4 / tu-intra-depth=4 / limit-tu=4 / rdoq-level=2 / dynamic-rd=0.00 / no-ssim-rd / signhide / no-tskip / nr-intra=0 / nr-inter=0 / no-constrained-intra / strong-intra-smoothing / max-merge=3 / limit-refs=1 / limit-modes / me=3 / subme=5 / merange=57 / temporal-mvp / no-frame-dup / no-hme / weightp / no-weightb / no-analyze-src-pics / deblock=-3:-3 / sao / no-sao-non-deblock / rd=4 / selective-sao=2 / no-early-skip / rskip / no-fast-intra / no-tskip-fast / no-cu-lossless / no-b-intra / no-splitrd-skip / rdpenalty=0 / psy-rd=2.00 / psy-rdoq=1.70 / no-rd-refine / no-lossless / cbqpoffs=0 / crqpoffs=0 / rc=abr / bitrate=4000 / qcomp=0.60 / qpstep=4 / stats-write=0 / stats-read=2 / cplxblur=20.0 / qblur=0.5 / ipratio=1.40 / pbratio=1.30 / aq-mode=5 / aq-strength=0.80 / aq-bias-strength=1.00 / cutree / zone-count=0 / no-strict-cbr / qg-size=32 / no-rc-grain / qpmax=69 / qpmin=0 / no-const-vbv / sar=0 / overscan=0 / videoformat=5 / range=0 / colorprim=2 / transfer=2 / colormatrix=2 / chromaloc=0 / display-window=0 / cll=0,0 / min-luma=0 / max-luma=1023 / log2-max-poc-lsb=8 / vui-timing-info / vui-hrd-info / slices=1 / no-opt-qp-pps / no-opt-ref-list-length-pps / no-multi-pass-opt-rps / scenecut-bias=0.05 / no-opt-cu-delta-qp / no-aq-motion / no-hdr10 / no-hdr10-opt / no-dhdr10-opt / no-idr-recovery-sei / analysis-reuse-level=0 / analysis-save-reuse-level=0 / analysis-load-reuse-level=0 / scale-factor=0 / refine-intra=0 / refine-inter=0 / refine-mv=1 / refine-ctu-distortion=0 / no-limit-sao / ctu-info=0 / no-lowpass-dct / refine-analysis-type=0 / copy-pic=1 / max-ausize-factor=1.0 / no-dynamic-refine / no-single-sei / no-hevc-aq / no-svt / no-field / qp-adaptation-range=1.00 / scenecut-aware-qp=0 / conformance-window-offsets / right=0 / bottom=0 / decoder-max-rate=0 / no-vbv-live-multi-pass / no-mcstf / no-sbrc
Language : English (US)
Default : No
Forced : No
Audio
Format : E-AC-3 JOC
Format/Info : Enhanced AC-3 with Joint Object Coding
Commercial name : Dolby Digital Plus with Dolby Atmos
Codec ID : A_EAC3
Duration : 1 h 49 min
Bit rate mode : Constant
Bit rate : 768 kb/s
Channel(s) : 6 channels
Channel layout : L R C LFE Ls Rs
Sampling rate : 48.0 kHz
Frame rate : 31.250 FPS (1536 SPF)
Compression mode : Lossy
Stream size : 602 MiB (16%)
Title : Surround 5.1
Language : English (US)
Service kind : Complete Main
Default : No
Forced : No
Complexity index : 16
Number of dynamic objects : 15
Bed channel count : 1 channel
Bed channel configuration : LFE
Subtitles
Text #1
ID : 3
Format : UTF-8
Codec ID : S_TEXT/UTF8
Codec ID/Info : UTF-8 Plain Text
Duration : 1 h 43 min
Bit rate : 23 b/s
Frame rate : 0.113 FPS
Count of elements : 698
Stream size : 17.5 KiB (0%)
Language : English (US)
Default : No
Forced : No
Text #2
ID : 4
Format : UTF-8
Codec ID : S_TEXT/UTF8
Codec ID/Info : UTF-8 Plain Text
Duration : 1 h 43 min
Bit rate : 28 b/s
Frame rate : 0.145 FPS
Count of elements : 898
Stream size : 21.8 KiB (0%)
Title : SDH
Language : English (US)
Default : No
Forced : No
Text #3
ID : 5
Format : UTF-8
Codec ID : S_TEXT/UTF8
Codec ID/Info : UTF-8 Plain Text
Duration : 1 h 46 min
Bit rate : 37 b/s
Frame rate : 0.107 FPS
Count of elements : 686
Stream size : 29.3 KiB (0%)
Language : Arabic (AE)
Default : No
Forced : No
Text #4
ID : 6
Format : UTF-8
Codec ID : S_TEXT/UTF8
Codec ID/Info : UTF-8 Plain Text
Duration : 1 h 46 min
Bit rate : 20 b/s
Frame rate : 0.106 FPS
Count of elements : 677
Stream size : 16.2 KiB (0%)
Language : Catalan (ES)
Default : No
Forced : No
Text #5
ID : 7
Format : UTF-8
Codec ID : S_TEXT/UTF8
Codec ID/Info : UTF-8 Plain Text
Duration : 1 h 46 min
Bit rate : 20 b/s
Frame rate : 0.107 FPS
Count of elements : 686
Stream size : 15.8 KiB (0%)
Title : Simplified
Language : Chinese-Hans-CN
Default : No
Forced : No
Text #6
ID : 8
Format : UTF-8
Codec ID : S_TEXT/UTF8
Codec ID/Info : UTF-8 Plain Text
Duration : 1 h 46 min
Bit rate : 17 b/s
Frame rate : 0.107 FPS
Count of elements : 686
Stream size : 13.6 KiB (0%)
Title : Traditional
Language : Chinese-Hant-CN
Default : No
Forced : No
Text #7
ID : 9
Format : UTF-8
Codec ID : S_TEXT/UTF8
Codec ID/Info : UTF-8 Plain Text
Duration : 1 h 46 min
Bit rate : 19 b/s
Frame rate : 0.106 FPS
Count of elements : 680
Stream size : 15.4 KiB (0%)
Language : Czech (CZ)
Default : No
Forced : No
Text #8
ID : 10
Format : UTF-8
Codec ID : S_TEXT/UTF8
Codec ID/Info : UTF-8 Plain Text
Duration : 1 h 46 min
Bit rate : 19 b/s
Frame rate : 0.106 FPS
Count of elements : 681
Stream size : 15.6 KiB (0%)
Language : Danish (DK)
Default : No
Forced : No
Text #9
ID : 11
Format : UTF-8
Codec ID : S_TEXT/UTF8
Codec ID/Info : UTF-8 Plain Text
Duration : 1 h 46 min
Bit rate : 20 b/s
Frame rate : 0.105 FPS
Count of elements : 672
Stream size : 16.0 KiB (0%)
Language : German (DE)
Default : No
Forced : No
Text #10
ID : 12
Format : UTF-8
Codec ID : S_TEXT/UTF8
Codec ID/Info : UTF-8 Plain Text
Duration : 1 h 46 min
Bit rate : 37 b/s
Frame rate : 0.106 FPS
Count of elements : 683
Stream size : 29.4 KiB (0%)
Language : Greek (GR)
Default : No
Forced : No
Text #11
ID : 13
Format : UTF-8
Codec ID : S_TEXT/UTF8
Codec ID/Info : UTF-8 Plain Text
Duration : 1 h 46 min
Bit rate : 20 b/s
Frame rate : 0.105 FPS
Count of elements : 674
Stream size : 16.2 KiB (0%)
Language : Spanish (ES)
Default : No
Forced : No
Text #12
ID : 14
Format : UTF-8
Codec ID : S_TEXT/UTF8
Codec ID/Info : UTF-8 Plain Text
Duration : 1 h 46 min
Bit rate : 20 b/s
Frame rate : 0.106 FPS
Count of elements : 680
Stream size : 16.4 KiB (0%)
Title : Latin American
Language : Spanish (Latin America)
Default : No
Forced : No
Text #13
ID : 15
Format : UTF-8
Codec ID : S_TEXT/UTF8
Codec ID/Info : UTF-8 Plain Text
Duration : 1 h 46 min
Bit rate : 20 b/s
Frame rate : 0.105 FPS
Count of elements : 673
Stream size : 15.9 KiB (0%)
Language : Basque (ES)
Default : No
Forced : No
Text #14
ID : 16
Format : UTF-8
Codec ID : S_TEXT/UTF8
Codec ID/Info : UTF-8 Plain Text
Duration : 1 h 46 min
Bit rate : 20 b/s
Frame rate : 0.105 FPS
Count of elements : 676
Stream size : 15.8 KiB (0%)
Language : Finnish (FI)
Default : No
Forced : No
Text #15
ID : 17
Format : UTF-8
Codec ID : S_TEXT/UTF8
Codec ID/Info : UTF-8 Plain Text
Duration : 1 h 46 min
Bit rate : 20 b/s
Frame rate : 0.106 FPS
Count of elements : 681
Stream size : 16.3 KiB (0%)
Language : Filipino (PH)
Default : No
Forced : No
Text #16
ID : 18
Format : UTF-8
Codec ID : S_TEXT/UTF8
Codec ID/Info : UTF-8 Plain Text
Duration : 1 h 46 min
Bit rate : 20 b/s
Frame rate : 0.099 FPS
Count of elements : 636
Stream size : 16.2 KiB (0%)
Language : French (FR)
Default : No
Forced : No
Text #17
ID : 19
Format : UTF-8
Codec ID : S_TEXT/UTF8
Codec ID/Info : UTF-8 Plain Text
Duration : 1 h 46 min
Bit rate : 20 b/s
Frame rate : 0.106 FPS
Count of elements : 683
Stream size : 16.0 KiB (0%)
Language : Galician (ES)
Default : No
Forced : No
Text #18
ID : 20
Format : UTF-8
Codec ID : S_TEXT/UTF8
Codec ID/Info : UTF-8 Plain Text
Duration : 1 h 46 min
Bit rate : 34 b/s
Frame rate : 0.107 FPS
Count of elements : 686
Stream size : 26.7 KiB (0%)
Language : Hebrew (IL)
Default : No
Forced : No
Text #19
ID : 21
Format : UTF-8
Codec ID : S_TEXT/UTF8
Codec ID/Info : UTF-8 Plain Text
Duration : 1 h 46 min
Bit rate : 19 b/s
Frame rate : 0.106 FPS
Count of elements : 679
Stream size : 15.1 KiB (0%)
Language : Croatian (HR)
Default : No
Forced : No
Text #20
ID : 22
Format : UTF-8
Codec ID : S_TEXT/UTF8
Codec ID/Info : UTF-8 Plain Text
Duration : 1 h 46 min
Bit rate : 20 b/s
Frame rate : 0.106 FPS
Count of elements : 678
Stream size : 15.8 KiB (0%)
Language : Hungarian (HU)
Default : No
Forced : No
Text #21
ID : 23
Format : UTF-8
Codec ID : S_TEXT/UTF8
Codec ID/Info : UTF-8 Plain Text
Duration : 1 h 46 min
Bit rate : 20 b/s
Frame rate : 0.106 FPS
Count of elements : 681
Stream size : 16.2 KiB (0%)
Language : Indonesian (ID)
Default : No
Forced : No
Text #22
ID : 24
Format : UTF-8
Codec ID : S_TEXT/UTF8
Codec ID/Info : UTF-8 Plain Text
Duration : 1 h 46 min
Bit rate : 21 b/s
Frame rate : 0.106 FPS
Count of elements : 681
Stream size : 16.8 KiB (0%)
Language : Italian (IT)
Default : No
Forced : No
Text #23
ID : 25
Format : UTF-8
Codec ID : S_TEXT/UTF8
Codec ID/Info : UTF-8 Plain Text
Duration : 1 h 46 min
Bit rate : 19 b/s
Frame rate : 0.104 FPS
Count of elements : 669
Stream size : 15.4 KiB (0%)
Language : Japanese (JP)
Default : No
Forced : No
Text #24
ID : 26
Format : UTF-8
Codec ID : S_TEXT/UTF8
Codec ID/Info : UTF-8 Plain Text
Duration : 1 h 46 min
Bit rate : 22 b/s
Frame rate : 0.106 FPS
Count of elements : 683
Stream size : 17.9 KiB (0%)
Language : Korean (KR)
Default : No
Forced : No
Text #25
ID : 27
Format : UTF-8
Codec ID : S_TEXT/UTF8
Codec ID/Info : UTF-8 Plain Text
Duration : 1 h 46 min
Bit rate : 21 b/s
Frame rate : 0.106 FPS
Count of elements : 677
Stream size : 16.6 KiB (0%)
Language : Malay (MY)
Default : No
Forced : No
Text #26
ID : 28
Format : UTF-8
Codec ID : S_TEXT/UTF8
Codec ID/Info : UTF-8 Plain Text
Duration : 1 h 46 min
Bit rate : 20 b/s
Frame rate : 0.106 FPS
Count of elements : 678
Stream size : 15.7 KiB (0%)
Language : Norwegian Bokmal (NO)
Default : No
Forced : No
Text #27
ID : 29
Format : UTF-8
Codec ID : S_TEXT/UTF8
Codec ID/Info : UTF-8 Plain Text
Duration : 1 h 46 min
Bit rate : 19 b/s
Frame rate : 0.097 FPS
Count of elements : 625
Stream size : 15.5 KiB (0%)
Language : Dutch (NL)
Default : No
Forced : No
Text #28
ID : 30
Format : UTF-8
Codec ID : S_TEXT/UTF8
Codec ID/Info : UTF-8 Plain Text
Duration : 1 h 46 min
Bit rate : 20 b/s
Frame rate : 0.106 FPS
Count of elements : 679
Stream size : 15.7 KiB (0%)
Language : Polish (PL)
Default : No
Forced : No
Text #29
ID : 31
Format : UTF-8
Codec ID : S_TEXT/UTF8
Codec ID/Info : UTF-8 Plain Text
Duration : 1 h 46 min
Bit rate : 20 b/s
Frame rate : 0.106 FPS
Count of elements : 678
Stream size : 15.8 KiB (0%)
Language : Portuguese (PT)
Default : No
Forced : No
Text #30
ID : 32
Format : UTF-8
Codec ID : S_TEXT/UTF8
Codec ID/Info : UTF-8 Plain Text
Duration : 1 h 46 min
Bit rate : 20 b/s
Frame rate : 0.106 FPS
Count of elements : 682
Stream size : 16.2 KiB (0%)
Title : Brazilian
Language : Portuguese (BR)
Default : No
Forced : No
Text #31
ID : 33
Format : UTF-8
Codec ID : S_TEXT/UTF8
Codec ID/Info : UTF-8 Plain Text
Duration : 1 h 46 min
Bit rate : 21 b/s
Frame rate : 0.106 FPS
Count of elements : 679
Stream size : 16.5 KiB (0%)
Language : Romanian (RO)
Default : No
Forced : No
Text #32
ID : 34
Format : UTF-8
Codec ID : S_TEXT/UTF8
Codec ID/Info : UTF-8 Plain Text
Duration : 1 h 46 min
Bit rate : 35 b/s
Frame rate : 0.107 FPS
Count of elements : 686
Stream size : 27.9 KiB (0%)
Language : Russian (RU)
Default : No
Forced : No
Text #33
ID : 35
Format : UTF-8
Codec ID : S_TEXT/UTF8
Codec ID/Info : UTF-8 Plain Text
Duration : 1 h 46 min
Bit rate : 20 b/s
Frame rate : 0.106 FPS
Count of elements : 681
Stream size : 16.2 KiB (0%)
Language : Swedish (SE)
Default : No
Forced : No
Text #34
ID : 36
Format : UTF-8
Codec ID : S_TEXT/UTF8
Codec ID/Info : UTF-8 Plain Text
Duration : 1 h 46 min
Bit rate : 51 b/s
Frame rate : 0.107 FPS
Count of elements : 686
Stream size : 40.7 KiB (0%)
Language : Thai (TH)
Default : No
Forced : No
Text #35
ID : 37
Format : UTF-8
Codec ID : S_TEXT/UTF8
Codec ID/Info : UTF-8 Plain Text
Duration : 1 h 46 min
Bit rate : 21 b/s
Frame rate : 0.104 FPS
Count of elements : 664
Stream size : 16.8 KiB (0%)
Language : Turkish (TR)
Default : No
Forced : No
Text #36
ID : 38
Format : UTF-8
Codec ID : S_TEXT/UTF8
Codec ID/Info : UTF-8 Plain Text
Duration : 1 h 46 min
Bit rate : 36 b/s
Frame rate : 0.107 FPS
Count of elements : 686
Stream size : 28.7 KiB (0%)
Language : Ukrainian (UA)
Default : No
Forced : No
Text #37
ID : 39
Format : UTF-8
Codec ID : S_TEXT/UTF8
Codec ID/Info : UTF-8 Plain Text
Duration : 1 h 46 min
Bit rate : 27 b/s
Frame rate : 0.106 FPS
Count of elements : 681
Stream size : 21.6 KiB (0%)
Language : Vietnamese (VN)
Default : No
Forced : No
Category: Movies
Size: 3.7 GB
Added: March 13, 2024, 5:50 p.m.
Peers: Seeders: 10, Leechers: 7,
Files:
  1. Damsel (2024) (1080p NF WEB-DL x265 Ghost).mkv 3.7 GB
Multiple Quality Available: M.Q.A
IMDB tt13452446
IMDB Title Damsel
IMDB Genre Action, Adventure, Fantasy,
IMDB Runtime 1:50:00 Hours
IMDB Rating 6.1
Director Juan Carlos Fresnadillo
IMDB cast Millie Bobby Brown, Ray Winstone, Angela Bassett
IMDB plot A dutiful damsel agrees to marry a handsome prince, only to find the royal family has recruited her as a sacrifice to repay an ancient debt.

Comment below