:Search:

Madame Web 2024 1080p AMZN WEB DL H 264 EniaHD

Torrent:
Thumbnail:
Trailer:
Similar Posts:
Name Uploaded Size Se Le Upl. by
Madame Web 2024 ITA ENG 1080p HollywoodMovie 2024-05-17 16.0 GB 26 44 HMRelease
BrookelynneBriar com 12 10 17 Madam Maxxx XXX iMAGESET LEWD XC 2024-05-13 145.1 MB 17 45 mLisa
Madame Web 2024 1080p BluRay x265 HEVC 10bit AAC 5 1 Tigole 2024-05-03 5.7 GB 50 10 QxR
Madame Web 2024 2160p BluRay x265 HEVC 10bit HDR AAC 7 1 Tigol 2024-05-03 10.2 GB 45 27 QxR
Madame Web 2024 1080p Bluray REMUX Multi Audio AVC DTS HD MA 5 1 VARR… 2024-05-01 26.7 GB 15 23 VarroaD
Madame Web 2024 iTA ENG Bluray 1080p x264 CYBER mkv 2024-05-01 9.2 GB 25 15 eXpOrTeRICV
Madame Web 2024 BDRip 1080p HEVC HDR10 EAC3 Atmos OEP 96021EEE mkv 2024-04-30 4.5 GB 31 11 OEP
Madame Web 2024 iTALiAN BDRiP x264 Dr4gon mkv 2024-04-29 1.9 GB 19 15 Dr4gon
Madame Web 2024 iTA ENG Bluray 1080p x264 Dr4gon mkv 2024-04-29 4.5 GB 34 18 Dr4gon
Madame Web 2024 1080p BluRay DDP5 1 x265 10bit GalaxyRG265 2024-04-29 2.4 GB 12 10 TGxGoodies
Uploader: ReXStAr
Downloads: 13
Type: HD
Genre: Science Fiction, Action, Adventure
Images:
Madame Web 2024 1080p AMZN WEB DL H 264 EniaHD
Madame Web 2024 1080p AMZN WEB DL H 264 EniaHD
Madame Web 2024 1080p AMZN WEB DL H 264 EniaHD
Madame Web 2024 1080p AMZN WEB DL H 264 EniaHD
Madame Web 2024 1080p AMZN WEB DL H 264 EniaHD
Madame Web 2024 1080p AMZN WEB DL H 264 EniaHD
Info Hash: 8F492D8605DA9588E2F0C411A975CDCEC7B42D47
Language: English
Description: General
Unique ID                      : 176917014705364415993308569286440590591 (0x8518FA45E95C57B41D17A6FF17271CFF)
Complete name                  : Madame.Web.2024.1080p.AMZN.WEB-DL.H.264-EniaHD.mkv
Format                         : Matroska
Format version                 : Version 4
File size                      : 9.79 GiB
Duration                       : 1 h 56 min
Overall bit rate               : 12.1 Mb/s
Frame rate                     : 23.976 FPS
Movie name                     : Madame Web (2024) - EniaHD
Writing application            : mkvmerge v57.0.0 ('Till The End') 64-bit
Writing library                : libebml v1.4.2 + libmatroska v1.6.4
Video
ID                             : 1
Format                         : AVC
Format/Info                    : Advanced Video Codec
Format profile                 : High@L4
Format settings                : CABAC / 4 Ref Frames
Format settings, CABAC         : Yes
Format settings, Reference fra : 4 frames
Codec ID                       : V_MPEG4/ISO/AVC
Duration                       : 1 h 56 min
Bit rate mode                  : Constant
Bit rate                       : 8 217 kb/s
Nominal bit rate               : 10 000 kb/s
Width                          : 1 920 pixels
Height                         : 800 pixels
Display aspect ratio           : 2.40:1
Frame rate mode                : Constant
Frame rate                     : 23.976 (24000/1001) FPS
Color space                    : YUV
Chroma subsampling             : 4:2:0
Bit depth                      : 8 bits
Scan type                      : Progressive
Bits/(Pixel*Frame)             : 0.223
Stream size                    : 6.67 GiB (68%)
Default                        : Yes
Forced                         : No
Color range                    : Limited
Color primaries                : BT.709
Transfer characteristics       : BT.709
Matrix coefficients            : BT.709
Audio #1
ID                             : 2
Format                         : AC-3
Format/Info                    : Audio Coding 3
Commercial name                : Dolby Digital
Codec ID                       : A_AC3
Duration                       : 1 h 56 min
Bit rate mode                  : Constant
Bit rate                       : 448 kb/s
Channel(s)                     : 6 channels
Channel layout                 : L R C LFE Ls Rs
Sampling rate                  : 48.0 kHz
Frame rate                     : 31.250 FPS (1536 SPF)
Compression mode               : Lossy
Stream size                    : 372 MiB (4%)
Title                          : MovieDalen
Language                       : Russian
Service kind                   : Complete Main
Default                        : Yes
Forced                         : No
Audio #2
ID                             : 3
Format                         : AC-3
Format/Info                    : Audio Coding 3
Commercial name                : Dolby Digital
Codec ID                       : A_AC3
Duration                       : 1 h 56 min
Bit rate mode                  : Constant
Bit rate                       : 384 kb/s
Channel(s)                     : 2 channels
Channel layout                 : L R
Sampling rate                  : 48.0 kHz
Frame rate                     : 31.250 FPS (1536 SPF)
Compression mode               : Lossy
Stream size                    : 319 MiB (3%)
Title                          : LostFilm
Language                       : Russian
Service kind                   : Complete Main
Default                        : No
Forced                         : No
Audio #3
ID                             : 4
Format                         : AC-3
Format/Info                    : Audio Coding 3
Commercial name                : Dolby Digital
Codec ID                       : A_AC3
Duration                       : 1 h 56 min
Bit rate mode                  : Constant
Bit rate                       : 640 kb/s
Channel(s)                     : 6 channels
Channel layout                 : L R C LFE Ls Rs
Sampling rate                  : 48.0 kHz
Frame rate                     : 31.250 FPS (1536 SPF)
Compression mode               : Lossy
Stream size                    : 532 MiB (5%)
Title                          : TVShows
Language                       : Russian
Service kind                   : Complete Main
Default                        : No
Forced                         : No
Audio #4
ID                             : 5
Format                         : AC-3
Format/Info                    : Audio Coding 3
Commercial name                : Dolby Digital
Codec ID                       : A_AC3
Duration                       : 1 h 56 min
Bit rate mode                  : Constant
Bit rate                       : 384 kb/s
Channel(s)                     : 2 channels
Channel layout                 : L R
Sampling rate                  : 48.0 kHz
Frame rate                     : 31.250 FPS (1536 SPF)
Compression mode               : Lossy
Stream size                    : 319 MiB (3%)
Title                          : HDrezka Studio
Language                       : Russian
Service kind                   : Complete Main
Default                        : No
Forced                         : No
Audio #5
ID                             : 6
Format                         : AAC LC
Format/Info                    : Advanced Audio Codec Low Complexity
Codec ID                       : A_AAC-2
Duration                       : 1 h 56 min
Bit rate                       : 192 kb/s
Channel(s)                     : 2 channels
Channel layout                 : L R
Sampling rate                  : 48.0 kHz
Frame rate                     : 46.875 FPS (1024 SPF)
Compression mode               : Lossy
Stream size                    : 162 MiB (2%)
Title                          : Red Head Sound
Language                       : Russian
Default                        : No
Forced                         : No
Audio #6
ID                             : 7
Format                         : AC-3
Format/Info                    : Audio Coding 3
Commercial name                : Dolby Digital
Codec ID                       : A_AC3
Duration                       : 1 h 56 min
Bit rate mode                  : Constant
Bit rate                       : 640 kb/s
Channel(s)                     : 6 channels
Channel layout                 : L R C LFE Ls Rs
Sampling rate                  : 48.0 kHz
Frame rate                     : 31.250 FPS (1536 SPF)
Compression mode               : Lossy
Stream size                    : 532 MiB (5%)
Title                          : ViruseProject
Language                       : Russian
Service kind                   : Complete Main
Default                        : No
Forced                         : No
Audio #7
ID                             : 8
Format                         : E-AC-3
Format/Info                    : Enhanced AC-3
Commercial name                : Dolby Digital Plus
Codec ID                       : A_EAC3
Duration                       : 1 h 56 min
Bit rate mode                  : Constant
Bit rate                       : 384 kb/s
Channel(s)                     : 6 channels
Channel layout                 : L R C LFE Ls Rs
Sampling rate                  : 48.0 kHz
Frame rate                     : 31.250 FPS (1536 SPF)
Compression mode               : Lossy
Stream size                    : 319 MiB (3%)
Title                          : LeDoyen
Language                       : Ukrainian
Service kind                   : Complete Main
Default                        : No
Forced                         : No
Audio #8
ID                             : 9
Format                         : E-AC-3 JOC
Format/Info                    : Enhanced AC-3 with Joint Object Coding
Commercial name                : Dolby Digital Plus with Dolby Atmos
Codec ID                       : A_EAC3
Duration                       : 1 h 56 min
Bit rate mode                  : Constant
Bit rate                       : 768 kb/s
Channel(s)                     : 6 channels
Channel layout                 : L R C LFE Ls Rs
Sampling rate                  : 48.0 kHz
Frame rate                     : 31.250 FPS (1536 SPF)
Compression mode               : Lossy
Stream size                    : 638 MiB (6%)
Title                          : English
Language                       : English
Service kind                   : Complete Main
Default                        : No
Forced                         : No
Complexity index               : 16
Number of dynamic objects      : 15
Bed channel count              : 1 channel
Bed channel configuration      : LFE
Text #1
ID                             : 10
Format                         : UTF-8
Codec ID                       : S_TEXT/UTF8
Codec ID/Info                  : UTF-8 Plain Text
Duration                       : 1 h 35 min
Bit rate                       : 2 b/s
Frame rate                     : 0.005 FPS
Count of elements              : 26
Stream size                    : 1.59 KiB (0%)
Title                          : Russian (Forced)
Language                       : Russian
Default                        : Yes
Forced                         : No
Text #2
ID                             : 11
Format                         : UTF-8
Codec ID                       : S_TEXT/UTF8
Codec ID/Info                  : UTF-8 Plain Text
Duration                       : 1 h 55 min
Bit rate                       : 91 b/s
Frame rate                     : 0.221 FPS
Count of elements              : 1527
Stream size                    : 77.4 KiB (0%)
Title                          : Russian
Language                       : Russian
Default                        : No
Forced                         : No
Text #3
ID                             : 12
Format                         : UTF-8
Codec ID                       : S_TEXT/UTF8
Codec ID/Info                  : UTF-8 Plain Text
Duration                       : 1 h 47 min
Bit rate                       : 58 b/s
Frame rate                     : 0.251 FPS
Count of elements              : 1611
Stream size                    : 46.1 KiB (0%)
Title                          : English
Language                       : English
Default                        : No
Forced                         : No
Text #4
ID                             : 13
Format                         : UTF-8
Codec ID                       : S_TEXT/UTF8
Codec ID/Info                  : UTF-8 Plain Text
Duration                       : 1 h 47 min
Bit rate                       : 68 b/s
Frame rate                     : 0.297 FPS
Count of elements              : 1922
Stream size                    : 53.8 KiB (0%)
Title                          : English (SDH)
Language                       : English
Default                        : No
Forced                         : No
Text #5
ID                             : 14
Format                         : UTF-8
Codec ID                       : S_TEXT/UTF8
Codec ID/Info                  : UTF-8 Plain Text
Duration                       : 1 h 54 min
Bit rate                       : 42 b/s
Frame rate                     : 0.184 FPS
Count of elements              : 1267
Stream size                    : 35.7 KiB (0%)
Title                          : French
Language                       : French
Default                        : No
Forced                         : No
Text #6
ID                             : 15
Format                         : UTF-8
Codec ID                       : S_TEXT/UTF8
Codec ID/Info                  : UTF-8 Plain Text
Duration                       : 1 h 54 min
Bit rate                       : 51 b/s
Frame rate                     : 0.213 FPS
Count of elements              : 1469
Stream size                    : 43.2 KiB (0%)
Title                          : German
Language                       : German
Default                        : No
Forced                         : No
Text #7
ID                             : 16
Format                         : UTF-8
Codec ID                       : S_TEXT/UTF8
Codec ID/Info                  : UTF-8 Plain Text
Duration                       : 1 h 54 min
Bit rate                       : 78 b/s
Frame rate                     : 0.212 FPS
Count of elements              : 1461
Stream size                    : 66.2 KiB (0%)
Title                          : Hebrew
Language                       : Hebrew
Default                        : No
Forced                         : No
Text #8
ID                             : 17
Format                         : UTF-8
Codec ID                       : S_TEXT/UTF8
Codec ID/Info                  : UTF-8 Plain Text
Duration                       : 1 h 54 min
Bit rate                       : 45 b/s
Frame rate                     : 0.199 FPS
Count of elements              : 1370
Stream size                    : 37.9 KiB (0%)
Title                          : Italian
Language                       : Italian
Default                        : No
Forced                         : No
Text #9
ID                             : 18
Format                         : UTF-8
Codec ID                       : S_TEXT/UTF8
Codec ID/Info                  : UTF-8 Plain Text
Duration                       : 1 h 54 min
Bit rate                       : 51 b/s
Frame rate                     : 0.218 FPS
Count of elements              : 1503
Stream size                    : 43.2 KiB (0%)
Title                          : Portuguese
Language                       : Portuguese (BR)
Default                        : No
Forced                         : No
Text #10
ID                             : 19
Format                         : UTF-8
Codec ID                       : S_TEXT/UTF8
Codec ID/Info                  : UTF-8 Plain Text
Duration                       : 1 h 54 min
Bit rate                       : 48 b/s
Frame rate                     : 0.217 FPS
Count of elements              : 1491
Stream size                    : 40.5 KiB (0%)
Title                          : Spanish
Language                       : Spanish (Latin America)
Default                        : No
Forced                         : No
Text #11
ID                             : 20
Format                         : UTF-8
Codec ID                       : S_TEXT/UTF8
Codec ID/Info                  : UTF-8 Plain Text
Duration                       : 1 h 54 min
Bit rate                       : 94 b/s
Frame rate                     : 0.236 FPS
Count of elements              : 1626
Stream size                    : 79.5 KiB (0%)
Title                          : Ukrainian
Language                       : Ukrainian
Default                        : No
Forced                         : No
Text #12
ID                             : 21
Format                         : UTF-8
Codec ID                       : S_TEXT/UTF8
Codec ID/Info                  : UTF-8 Plain Text
Duration                       : 1 h 33 min
Bit rate                       : 1 b/s
Frame rate                     : 0.004 FPS
Count of elements              : 21
Stream size                    : 1.24 KiB (0%)
Title                          : Ukrainian (Forced)
Language                       : Ukrainian
Default                        : No
Forced                         : No
Menu
00:00:00.000                   : en:Studio Logos
00:00:51.000                   : en:Title Sequence
00:01:10.000                   : en:Scene 3
00:03:10.000                   : en:Scene 4
00:05:20.000                   : en:Scene 5
00:06:28.000                   : en:Scene 6
00:07:55.000                   : en:Scene 7
00:09:12.000                   : en:Scene 8
00:10:54.000                   : en:Scene 9
00:11:31.000                   : en:Scene 10
00:13:35.000                   : en:Scene 11
00:14:35.000                   : en:Scene 12
00:17:15.000                   : en:Scene 13
00:22:53.000                   : en:Scene 14
00:24:19.000                   : en:Scene 15
00:27:43.000                   : en:Scene 16
00:31:39.000                   : en:Scene 17
00:33:11.000                   : en:Scene 18
00:34:07.000                   : en:Scene 19
00:35:23.000                   : en:Scene 20
00:36:53.000                   : en:Scene 21
00:42:13.000                   : en:Scene 22
00:44:36.000                   : en:Scene 23
00:47:46.000                   : en:Scene 24
00:48:08.000                   : en:Scene 25
00:52:23.000                   : en:Scene 26
00:55:34.000                   : en:Scene 27
01:00:18.000                   : en:Scene 28
01:01:03.000                   : en:Scene 29
01:05:46.000                   : en:Scene 30
01:06:53.000                   : en:Scene 31
01:07:17.000                   : en:Scene 32
01:10:42.000                   : en:Scene 33
01:13:19.000                   : en:Scene 34
01:17:03.000                   : en:Scene 35
01:17:39.000                   : en:Scene 36
01:22:59.000                   : en:Scene 37
01:24:50.000                   : en:Scene 38
01:26:20.000                   : en:Scene 39
01:27:05.000                   : en:Scene 40
01:28:50.000                   : en:Scene 41
01:29:06.000                   : en:Scene 42
01:32:58.000                   : en:Scene 43
01:44:13.000                   : en:Scene 44
01:45:13.000                   : en:Scene 45
01:45:34.000                   : en:Scene 46
01:46:35.000                   : en:Scene 47
01:48:50.000                   : en:End Credits
Category: Movies
Size: 9.8 GB
Added: April 2, 2024, 1:26 p.m.
Peers: Seeders: 54, Leechers: 80,
Multiple Quality Available: M.Q.A
IMDB tt11057302
IMDB Title Madame Web
IMDB Genre Action, Adventure, Sci-Fi,
IMDB Runtime 1:57:00 Hours
IMDB Rating 3.9
Director S.J. Clarkson
IMDB cast Dakota Johnson, Sydney Sweeney, Isabela Merced
IMDB plot Cassandra Webb develops the power to see the future. Forced to confront revelations about her past, she forges a relationship with three young women bound for powerful destinies, if they can all survive a deadly present.

Comment below